<?xml version="1.0" standalone="no"?>
<!DOCTYPE svg PUBLIC "-//W3C//DTD SVG 1.1//EN" "http://www.w3.org/Graphics/SVG/1.1/DTD/svg11.dtd" >
<svg xmlns="http://www.w3.org/2000/svg">
<metadata></metadata>
<defs>
<font id="weblysleek_uisemilight" horiz-adv-x="1079" >
<font-face units-per-em="2048" ascent="1638" descent="-410" />
<missing-glyph horiz-adv-x="561" />
<glyph horiz-adv-x="2048" />
<glyph horiz-adv-x="2048" />
<glyph unicode="&#xd;" horiz-adv-x="0" />
<glyph unicode=" "  horiz-adv-x="561" />
<glyph unicode="&#x09;" horiz-adv-x="561" />
<glyph unicode="&#xa0;" horiz-adv-x="561" />
<glyph unicode="!" horiz-adv-x="582" d="M195 77q0 41 28 68.5t68 27.5q19 0 36 -7t30.5 -20t21.5 -30.5t8 -38.5q0 -20 -8 -37.5t-21.5 -30.5t-30.5 -20t-36 -7q-40 0 -68 27.5t-28 67.5zM219 1434h139l-14 -1031h-111z" />
<glyph unicode="&#x22;" horiz-adv-x="744" d="M170 986v448h115v-448h-115zM460 986v448h115v-448h-115z" />
<glyph unicode="#" horiz-adv-x="1223" d="M46 521l19 92h273l68 323h-285l20 92h284l86 406h103l-86 -406h260l87 406h102l-87 -406h269l-21 -92h-266l-70 -323h283l-22 -92h-279l-87 -398h-103l86 398h-259l-85 -398h-103l85 398h-272zM439 613h261l70 323h-260z" />
<glyph unicode="$" d="M162 1065q0 74 25 137t70 111t107 79t136 42v181h91v-178q88 -2 154 -17t112 -38v-131q-105 70 -266 73v-568q98 -49 164 -95t106 -92.5t57 -96.5t17 -109q0 -70 -23.5 -130t-67.5 -106.5t-108 -77.5t-145 -43v-215h-91v209q-199 0 -336 83v138q33 -25 73 -45t84.5 -34.5 t90 -22t88.5 -7.5v555q-61 34 -121.5 68.5t-108.5 79.5t-78 105t-30 145zM294 1081q0 -44 9.5 -79.5t33 -67.5t63 -62.5t100.5 -64.5v513q-95 -18 -150.5 -81t-55.5 -158zM591 117q106 20 159 79.5t53 150.5q0 40 -11.5 75t-36.5 67.5t-65.5 63.5t-98.5 64v-500z" />
<glyph unicode="%" horiz-adv-x="1641" d="M82 1082q0 89 25 159t70 118.5t108 74t140 25.5q75 0 135 -25t102 -72t64.5 -114.5t22.5 -153.5q0 -81 -24.5 -149t-68.5 -117.5t-106.5 -77.5t-139.5 -28q-76 0 -137 26t-103.5 73.5t-65 113.5t-22.5 147zM194 1086q0 -125 58.5 -197t163.5 -72q53 0 94 19.5t69 55.5 t43 87t15 114q0 131 -58 200.5t-158 69.5q-52 0 -94.5 -19t-71.5 -54.5t-45 -87t-16 -116.5zM310 -21l891 1454h120l-890 -1454h-121zM901 337q0 88 25 158t70 119t108.5 75t139.5 26q75 0 135 -25t102 -72t64.5 -115.5t22.5 -154.5q0 -81 -24.5 -149t-68.5 -117.5 t-106.5 -77t-139.5 -27.5q-75 0 -136 26t-103.5 73t-65.5 113.5t-23 147.5zM1013 340q0 -62 15.5 -112t44 -84.5t69.5 -53t93 -18.5t93 19t69.5 55t44 87t15.5 115q0 132 -58 200.5t-159 68.5q-52 0 -94 -19t-71.5 -54.5t-45.5 -87t-16 -116.5z" />
<glyph unicode="&#x26;" horiz-adv-x="1436" d="M130 361q0 264 329 422q-158 194 -158 340q0 72 27 133t76 106t115.5 70.5t146.5 25.5q74 0 134 -22t102 -61t65 -93t23 -118q0 -68 -18 -123.5t-58 -104t-103.5 -91.5t-154.5 -86q90 -95 191.5 -196t216.5 -213q27 40 49.5 88.5t38.5 101.5t25 108.5t11 109.5h123 q-5 -271 -169 -492q54 -53 121 -118.5t151 -148.5l-186 1l-174 173q-197 -198 -474 -198q-104 0 -187.5 28.5t-142 80t-89.5 122.5t-31 155zM262 368q0 -63 23.5 -115t65.5 -88.5t101.5 -57t131.5 -20.5q226 0 393 166q-119 117 -227.5 227.5t-211.5 219.5 q-144 -68 -210 -147.5t-66 -184.5zM431 1122q0 -118 148 -284q76 35 129.5 70.5t87.5 73.5t50 80t16 89q0 44 -15.5 80.5t-42.5 63t-63 41t-78 14.5q-53 0 -96 -17t-73 -47.5t-46.5 -72.5t-16.5 -91z" />
<glyph unicode="'" horiz-adv-x="454" d="M170 986v448h115v-448h-115z" />
<glyph unicode="(" horiz-adv-x="598" d="M145 546q0 531 308 888h123q-313 -370 -313 -886q0 -500 310 -874h-122q-306 354 -306 872z" />
<glyph unicode=")" horiz-adv-x="598" d="M22 1434h123q308 -357 308 -888q0 -518 -306 -872h-122q310 374 310 874q0 516 -313 886z" />
<glyph unicode="*" horiz-adv-x="842" d="M73 1115l33 105l278 -100l-20 314h116l-18 -314l274 100l34 -105l-283 -66l195 -255l-93 -63l-165 271l-168 -271l-92 63l194 255z" />
<glyph unicode="+" horiz-adv-x="1366" d="M221 542v109h408v408h108v-408h408v-109h-408v-407h-108v407h-408z" />
<glyph unicode="," horiz-adv-x="449" d="M43 -256l133 483h131l-167 -483h-97z" />
<glyph unicode="-" horiz-adv-x="817" d="M144 530v110h547v-110h-547z" />
<glyph unicode="." horiz-adv-x="449" d="M128 76q0 41 27.5 69t68.5 28q20 0 37.5 -7.5t30.5 -20t21 -30.5t8 -39q0 -20 -8 -37.5t-21 -30.5t-30.5 -20.5t-37.5 -7.5q-40 0 -68 28t-28 68z" />
<glyph unicode="/" horiz-adv-x="774" d="M-29 -238l693 1672h125l-696 -1672h-122z" />
<glyph unicode="0" d="M89 687q0 382 120.5 576.5t347.5 194.5q432 0 432 -735q0 -182 -31 -321t-90.5 -234t-145.5 -143.5t-196 -48.5q-103 0 -184 46t-137.5 135.5t-86 222.5t-29.5 307zM221 697q0 -300 80.5 -455.5t238.5 -155.5q77 0 136.5 40.5t99.5 119t60.5 194.5t20.5 267 q0 639 -308 639q-160 0 -244 -162t-84 -487z" />
<glyph unicode="1" horiz-adv-x="768" d="M83 1095v113q118 38 225.5 104.5t208.5 153.5h37v-1466h-128v1282q-35 -30 -78.5 -58t-89 -52.5t-91 -44t-84.5 -32.5z" />
<glyph unicode="2" d="M102 0v69q0 96 22.5 166.5t70.5 132t123 122.5t180 137q71 52 126 100.5t92 100t56 109.5t19 129q0 68 -20.5 120.5t-57.5 88t-89 53.5t-115 18q-96 0 -184.5 -45.5t-166.5 -121.5v142q76 65 166 101t203 36q18 0 34.5 -2t32.5 -6q74 -8 134.5 -37.5t103.5 -76.5 t66.5 -111.5t23.5 -143.5q0 -92 -24 -165t-68.5 -134.5t-107 -116t-139.5 -109.5q-86 -62 -147.5 -109.5t-102 -90.5t-61.5 -86t-27 -96q-5 -14 -6.5 -28t-1.5 -31h714v-115h-849z" />
<glyph unicode="3" d="M123 52v141q155 -107 320 -107q68 0 131 17t111.5 53.5t77.5 93t29 135.5q0 150 -105.5 226t-310.5 76h-114v111h105q186 0 280 73.5t94 214.5q0 127 -69.5 193.5t-208.5 66.5q-144 0 -284 -98v129q150 81 311 81q76 0 146 -21t122.5 -63.5t84 -106t31.5 -148.5 q0 -287 -284 -367v-4q70 -8 131 -34.5t106 -71t71 -106t26 -137.5q0 -102 -38 -181t-104 -133t-154.5 -82t-188.5 -28q-182 0 -316 77z" />
<glyph unicode="4" horiz-adv-x="1124" d="M50 356v116q95 108 192.5 230.5t186.5 249t164 250t126 232.5h137v-962h224v-116h-224v-356h-127v356h-679zM195 472h534v757q-74 -128 -147 -238.5t-141.5 -205t-131 -172.5t-114.5 -141z" />
<glyph unicode="5" d="M160 32v140q143 -86 286 -86q82 0 148 24t112.5 68t71.5 106t25 137q0 158 -97 241t-286 83q-76 0 -218 -12l44 701h625v-116h-516l-30 -465q87 6 138 6q114 0 201.5 -29.5t147.5 -84.5t91 -134t31 -179q0 -102 -33 -186t-96 -144t-155 -93t-209 -33q-177 0 -281 56z" />
<glyph unicode="6" d="M117 630q0 187 39.5 340t113.5 261.5t179.5 167.5t238.5 59t223 -38v-127q-105 53 -222 53q-101 0 -182.5 -47.5t-138.5 -134.5t-88 -208.5t-31 -268.5h4q103 210 343 210q91 0 164.5 -33t126 -92t81 -140t28.5 -177q0 -105 -32.5 -193t-91 -151.5t-139 -99.5t-176.5 -36 q-104 0 -185.5 43.5t-138 127.5t-86.5 206t-30 278zM260 469q0 -78 22 -147.5t62 -121.5t96 -82.5t124 -30.5q66 0 121 26t94.5 72.5t62 110t22.5 139.5q0 79 -20.5 144t-58.5 110.5t-93 70.5t-125 25q-66 0 -122.5 -26t-97.5 -70t-64 -101t-23 -119z" />
<glyph unicode="7" horiz-adv-x="1034" d="M70 1318v116h894v-54q-77 -139 -142.5 -263t-120 -239t-98.5 -223t-78.5 -215t-60 -216t-43.5 -224h-135q24 156 73 320t117 331t152.5 335t177.5 332h-736z" />
<glyph unicode="8" d="M98 400q0 57 17 113.5t51 106t84 89.5t115 64q-97 50 -154.5 133.5t-57.5 185.5q0 79 29.5 146t81.5 116t123.5 76.5t154.5 27.5q84 0 155.5 -28t123.5 -77t81 -116t29 -145q0 -51 -15 -98t-42.5 -88t-66 -74.5t-85.5 -58.5q64 -24 113 -64t82.5 -89.5t50.5 -106 t17 -113.5q0 -97 -32.5 -175.5t-91 -133.5t-140 -84.5t-180.5 -29.5q-97 0 -178 29.5t-140 84.5t-92 133t-33 176zM235 402q0 -71 22 -128.5t62.5 -98.5t96.5 -63t125 -22q67 0 123.5 22.5t97 63t63.5 98t23 128.5q0 63 -22 119.5t-62 99t-96.5 67t-126.5 24.5 q-66 0 -122 -23t-97 -64t-64 -98t-23 -125zM285 1084q0 -55 20 -103t55 -83t82 -55.5t100 -20.5t100 20.5t82 56t55.5 83.5t20.5 102q0 56 -20 104t-54.5 83.5t-82 55.5t-101.5 20q-57 0 -104.5 -20.5t-81.5 -56.5t-52.5 -84t-18.5 -102z" />
<glyph unicode="9" d="M98 982q0 106 33.5 193.5t93 150.5t141.5 97.5t179 34.5q101 0 181.5 -42t136 -124.5t85 -204.5t29.5 -281q0 -198 -38 -352.5t-110.5 -261t-179.5 -162t-245 -55.5q-122 0 -229 43v129q117 -60 232 -60q211 0 325 168.5t114 490.5h-4q-96 -208 -336 -208q-90 0 -165 33 t-129 91.5t-84 140t-30 179.5zM230 1002q0 -81 22 -146t62 -110t96.5 -69t124.5 -24q62 0 116.5 24t95 64.5t64 95t23.5 116.5q0 87 -22.5 159.5t-62.5 124t-96 80.5t-122 29q-65 0 -120 -26t-95 -71.5t-63 -108.5t-23 -138z" />
<glyph unicode=":" horiz-adv-x="449" d="M128 76q0 41 27.5 69t68.5 28q20 0 37.5 -7.5t30.5 -20t21 -30.5t8 -39q0 -20 -8 -37.5t-21 -30.5t-30.5 -20.5t-37.5 -7.5q-40 0 -68 28t-28 68zM128 949q0 40 28 67.5t68 27.5q19 0 36.5 -7t31 -19.5t21.5 -30t8 -38.5t-8 -38.5t-21.5 -30.5t-31 -20.5t-36.5 -7.5 q-20 0 -37.5 7.5t-30.5 21t-20.5 31t-7.5 37.5z" />
<glyph unicode=";" horiz-adv-x="449" d="M43 -256l133 483h131l-167 -483h-97zM135 949q0 41 27.5 68t68.5 27q40 0 68 -27.5t28 -67.5q0 -21 -8 -38.5t-21.5 -30.5t-30.5 -20.5t-36 -7.5q-42 0 -69 28t-27 69z" />
<glyph unicode="&#x3c;" horiz-adv-x="1366" d="M260 569v39l846 474v-122l-659 -367v-4l659 -324v-123z" />
<glyph unicode="=" horiz-adv-x="1366" d="M221 340v108h924v-108h-924zM221 747v108h924v-108h-924z" />
<glyph unicode="&#x3e;" horiz-adv-x="1366" d="M260 142v123l661 323v5l-661 367v122l846 -474v-39z" />
<glyph unicode="?" horiz-adv-x="899" d="M125 1215v142q74 51 152.5 76t167.5 25q75 0 140.5 -20.5t113.5 -60.5t76 -98.5t28 -135.5q0 -56 -15.5 -103t-41 -87t-57.5 -75t-66 -67q-43 -41 -75.5 -73.5t-54.5 -62.5t-33.5 -61t-11.5 -69q0 -46 9.5 -83.5t19.5 -63.5h-121q-10 26 -17 66.5t-7 81.5q0 51 16 92.5 t42 78.5t60.5 71t71.5 69q30 28 57.5 57t48.5 62t34 70.5t13 80.5q0 52 -18.5 92t-51 67.5t-77 42t-95.5 14.5q-90 0 -166 -32.5t-142 -95.5zM323 77q0 21 7.5 38.5t20.5 30t30.5 20t36.5 7.5t36.5 -7t31 -20t21.5 -30.5t8 -38.5q0 -20 -8 -37.5t-21.5 -30.5t-31 -20 t-36.5 -7t-36 7t-30 20t-21 30.5t-8 37.5z" />
<glyph unicode="@" horiz-adv-x="1944" d="M170 611q0 116 27 223.5t77.5 201.5t123 171.5t164.5 132.5t201.5 85.5t233.5 30.5q108 0 208 -24t186.5 -68.5t157.5 -109t122 -145.5t78.5 -177t27.5 -205q0 -58 -9.5 -120.5t-29.5 -123t-51 -114.5t-74 -95t-99.5 -65t-126.5 -24q-220 0 -229 238h-4 q-82 -238 -290 -238q-75 0 -132 29.5t-95 79.5t-57.5 118t-19.5 144q0 60 11 123t33 121.5t56 110t80 90t105.5 60.5t131.5 22q32 0 64 -8.5t60 -25t50 -41t34 -56.5h4l10 117h106l-49 -573q0 -212 136 -212q51 0 90.5 20t69 54t50.5 78.5t33.5 92.5t18.5 97t6 92 q0 147 -48.5 265t-137 201.5t-212.5 128t-274 44.5q-105 0 -197.5 -26t-170.5 -73.5t-140 -114.5t-105 -149.5t-66 -178.5t-23 -201q0 -156 49 -285.5t140 -222t219.5 -143.5t288.5 -51q248 0 424 85v-109q-183 -76 -434 -76q-179 0 -327 59t-253.5 165t-164 253t-58.5 322z M678 559q0 -63 14 -114t40.5 -86.5t64 -54.5t84.5 -19q56 0 98.5 22.5t74 59.5t52.5 85.5t34 101t18.5 105.5t5.5 99q0 112 -49 169t-141 57q-80 0 -136.5 -38.5t-92 -100t-51.5 -137t-16 -149.5z" />
<glyph unicode="A" horiz-adv-x="1303" d="M40 0l546 1434h134l543 -1434h-148l-158 424h-615l-154 -424h-148zM387 545h525l-234 638q-7 19 -14.5 44t-12.5 57h-4q-6 -32 -13.5 -57t-14.5 -44z" />
<glyph unicode="B" horiz-adv-x="1144" d="M186 0v1434h392q89 0 160.5 -24t122 -67.5t77.5 -104.5t27 -134q0 -62 -17 -116t-49 -98.5t-78.5 -77t-105.5 -51.5v-4q72 -7 131 -35t101 -73t65 -105.5t23 -132.5q0 -91 -33 -166.5t-92.5 -130t-141.5 -84.5t-181 -30h-401zM319 121h247q159 0 244.5 74.5t85.5 211.5 q0 276 -375 276h-202v-562zM319 803h186q73 0 132 19t101 55t64.5 87t22.5 115q0 233 -290 233h-216v-509z" />
<glyph unicode="C" horiz-adv-x="1270" d="M101 689q0 163 50.5 303.5t144.5 244t227.5 162.5t299.5 59q183 0 327 -56v-142q-154 77 -329 77q-139 0 -247 -48t-182 -133.5t-113 -202t-39 -254.5q0 -124 35 -233.5t103.5 -191.5t170.5 -130t237 -48q207 0 364 87v-130q-166 -78 -379 -78q-152 0 -276 53.5 t-211.5 148.5t-135 226t-47.5 286z" />
<glyph unicode="D" horiz-adv-x="1408" d="M186 0v1434h377q368 0 556 -176.5t188 -521.5q0 -166 -52.5 -302t-151.5 -232.5t-240 -149t-318 -52.5h-359zM319 121h220q148 0 264.5 40t197.5 117.5t123.5 191.5t42.5 262q0 580 -613 580h-235v-1191z" />
<glyph unicode="E" horiz-adv-x="1030" d="M186 0v1434h699v-122h-566v-526h524v-120h-524v-545h598v-121h-731z" />
<glyph unicode="F" horiz-adv-x="976" d="M186 0v1434h699v-122h-566v-540h524v-121h-524v-651h-133z" />
<glyph unicode="G" horiz-adv-x="1386" d="M101 697q0 105 22.5 202t66 182t106.5 154t144.5 119t179.5 77t211 27q213 0 380 -76v-147q-184 102 -396 102q-131 0 -237 -48t-180.5 -132t-115.5 -198.5t-42 -248.5v-7q0 -129 34 -239q36 -112 106 -194t173 -128t238 -46q182 0 316 76v437h-326v121h459v-631 q-221 -124 -468 -124q-156 0 -280 53.5t-211 149t-133.5 228t-46.5 291.5z" />
<glyph unicode="H" horiz-adv-x="1420" d="M186 0v1434h133v-643h782v643h133v-1434h-133v671h-782v-671h-133z" />
<glyph unicode="I" horiz-adv-x="506" d="M186 0v1434h133v-1434h-133z" />
<glyph unicode="J" horiz-adv-x="697" d="M19 -5v131q56 -30 125 -30q127 0 185.5 100t58.5 308v930h133v-930q0 -268 -99 -398t-280 -130q-35 0 -66 4.5t-57 14.5z" />
<glyph unicode="K" horiz-adv-x="1133" d="M186 0v1434h133v-675h4q7 11 15 21t17 21l558 633h169l-622 -692l663 -742h-186l-583 671q-24 29 -31 41h-4v-712h-133z" />
<glyph unicode="L" horiz-adv-x="951" d="M186 0v1434h133v-1313h576v-121h-709z" />
<glyph unicode="M" horiz-adv-x="1772" d="M186 0v1434h157l487 -1078q15 -34 29.5 -69.5t26.5 -75.5h6q14 40 25.5 73t28.5 71l491 1079h149v-1434h-131v990q0 76 12 245h-4q-14 -45 -25.5 -78t-21.5 -54l-500 -1103h-57l-501 1096q-22 50 -45 141h-4q4 -46 5.5 -105t1.5 -131v-1001h-130z" />
<glyph unicode="N" horiz-adv-x="1492" d="M186 0v1434h147l783 -1137q18 -27 32.5 -50.5t26.5 -43.5h5q-4 33 -6 74t-2 91v1066h134v-1434h-138l-796 1151q-15 22 -29.5 45t-23.5 45h-5q2 -18 3.5 -50t1.5 -80v-1111h-133z" />
<glyph unicode="O" horiz-adv-x="1551" d="M101 701q0 168 46.5 307.5t135.5 239t218 155t294 55.5q152 0 273 -54.5t206 -151t130.5 -228.5t45.5 -287q0 -163 -44.5 -302.5t-131 -241.5t-213 -160t-291.5 -58q-155 0 -279 56.5t-210.5 154.5t-133 230.5t-46.5 284.5zM240 714v-7q0 -119 32 -227q32 -112 97.5 -197 t165.5 -136t234 -51t235.5 46.5t169.5 129t102.5 196.5t34.5 249q0 126 -30.5 239t-95 197.5t-164.5 134t-240 49.5q-130 0 -230.5 -49.5t-169.5 -134t-104.5 -198t-36.5 -241.5z" />
<glyph unicode="P" horiz-adv-x="1130" d="M186 0v1434h370q113 0 200 -28t147 -81t91 -130t31 -176q0 -100 -35 -184.5t-100.5 -146t-159.5 -96t-213 -34.5h-198v-558h-133zM319 680h190q185 0 281 86t96 243q0 303 -354 303h-213v-632z" />
<glyph unicode="Q" horiz-adv-x="1551" d="M101 701q0 173 48.5 312.5t138.5 238.5t218.5 152.5t288.5 53.5q146 0 266.5 -52.5t207 -148t134 -228t47.5 -292.5q0 -232 -81.5 -400.5t-227.5 -260.5l396 -269h-242l-288 206q-54 -18 -113 -27.5t-124 -9.5q-152 0 -275.5 53t-211 148.5t-135 229t-47.5 294.5z M240 714q0 -140 38 -254t107 -195t166.5 -125t217.5 -44q125 0 225 42t170.5 122t108.5 195.5t38 261.5q0 147 -37 262t-106 194.5t-167 121.5t-220 42q-119 0 -218.5 -45.5t-171 -127.5t-111.5 -196.5t-40 -253.5z" />
<glyph unicode="R" horiz-adv-x="1181" d="M186 0v1434h413q81 0 156.5 -24t134.5 -71t94.5 -118t35.5 -165q0 -76 -23 -140t-65.5 -113.5t-103 -84t-136.5 -51.5v-4q29 -12 53 -31t46.5 -46t44.5 -62t46 -80l241 -444h-156l-216 411q-32 61 -62 102t-62 65.5t-68.5 35t-81.5 10.5h-158v-624h-133zM319 745h238 q72 0 132 21t102.5 60t66 94t23.5 124q0 125 -80.5 196.5t-232.5 71.5h-249v-567z" />
<glyph unicode="S" horiz-adv-x="1053" d="M130 54v156q36 -27 79.5 -48.5t89 -36t91.5 -22t88 -7.5q163 0 244 63t81 181q0 57 -19 99.5t-59 79.5t-101 73.5t-144 82.5q-92 50 -157.5 94.5t-107 91t-61 100.5t-19.5 123q0 87 37 156t100 117.5t147.5 74.5t180.5 26q169 0 283 -47v-147q-127 73 -298 73 q-64 0 -120.5 -15.5t-99 -45.5t-67 -74.5t-24.5 -103.5q0 -56 16.5 -96.5t53 -76.5t96 -71.5t145.5 -81.5q90 -48 157 -93.5t111.5 -95t66.5 -105t22 -123.5q0 -94 -35 -165.5t-98 -118.5t-150 -71t-191 -24q-34 0 -81 5.5t-95 16t-91.5 25t-70.5 31.5z" />
<glyph unicode="T" horiz-adv-x="1060" d="M50 1312v122h960v-122h-414v-1312h-133v1312h-413z" />
<glyph unicode="U" horiz-adv-x="1367" d="M168 554v880h133v-868q0 -236 95 -353t294 -117q376 0 376 456v882h133v-858q0 -601 -528 -601q-503 0 -503 579z" />
<glyph unicode="V" horiz-adv-x="1254" d="M29 1434h149l406 -1146q11 -32 19.5 -64.5t13.5 -67.5h4q5 28 14 61.5t23 72.5l423 1144h144l-544 -1434h-130z" />
<glyph unicode="W" horiz-adv-x="1873" d="M38 1434h148l316 -1125q11 -37 17.5 -70.5t10.5 -64.5h4q6 45 33 135l336 1125h105l315 -1129q9 -34 16 -66.5t11 -63.5h4q2 20 8 45t14 56l314 1158h145l-413 -1434h-139l-307 1063q-11 38 -17.5 73t-7.5 68h-4q-4 -58 -29 -139l-318 -1065h-139z" />
<glyph unicode="X" horiz-adv-x="1180" d="M43 0l467 722l-434 712h162l307 -522q14 -23 26.5 -47.5t25.5 -50.5h4q14 29 27.5 54t26.5 46l312 520h154l-440 -710l448 -724h-162l-330 548q-11 19 -23 41.5t-20 43.5h-5l-20.5 -41t-24.5 -44l-338 -548h-163z" />
<glyph unicode="Y" horiz-adv-x="1119" d="M34 1434h151l328 -670q6 -12 16 -36t24 -61h3q6 18 17 42t27 54l343 671h142l-468 -897v-537h-133v534z" />
<glyph unicode="Z" horiz-adv-x="1167" d="M49 0v39l851 1273h-783v122h988v-34l-856 -1279h839v-121h-1039z" />
<glyph unicode="[" horiz-adv-x="598" d="M204 -326v1760h343v-102h-224v-1556h224v-102h-343z" />
<glyph unicode="\" horiz-adv-x="763" d="M-27 1434h125l681 -1673h-122z" />
<glyph unicode="]" horiz-adv-x="598" d="M52 -224h223v1556h-223v102h342v-1760h-342v102z" />
<glyph unicode="^" horiz-adv-x="1366" d="M245 663l403 795h53l421 -795h-123l-319 616h-5l-309 -616h-121z" />
<glyph unicode="_" horiz-adv-x="850" d="M0 -178h850v-104h-850v104z" />
<glyph unicode="`" horiz-adv-x="528" d="M79 1531h136l227 -328h-108z" />
<glyph unicode="a" horiz-adv-x="1026" d="M98 268q0 139 86 221.5t260 107.5l311 45q0 295 -229 295q-179 0 -332 -131v140q32 23 72.5 41.5t85.5 32t92.5 21t92.5 7.5q171 0 258.5 -96t87.5 -286v-666h-128v182h-4q-50 -98 -136.5 -152t-195.5 -54q-74 0 -133.5 21t-101 59.5t-64 92.5t-22.5 119zM230 276 q0 -41 14.5 -76t42 -60.5t67 -39.5t89.5 -14q68 0 125 26t98.5 72t65 110t23.5 139v101l-264 -37q-69 -10 -118 -25t-81 -40.5t-47 -63t-15 -92.5z" />
<glyph unicode="b" horiz-adv-x="1175" d="M165 0v1516h128v-688h4q57 107 152.5 163.5t215.5 56.5q98 0 175.5 -35.5t131 -101.5t82 -159t28.5 -207q0 -127 -32.5 -231.5t-92.5 -179.5t-145.5 -116.5t-191.5 -41.5q-217 0 -323 189h-4v-165h-128zM293 426q0 -70 23.5 -131.5t65.5 -108t101.5 -73.5t131.5 -27 q77 0 139 32.5t105.5 92.5t67 145t23.5 190q0 90 -22 162.5t-62.5 123.5t-98 78t-128.5 27q-80 0 -144 -29.5t-109 -80.5t-69 -119.5t-24 -145.5v-136z" />
<glyph unicode="c" horiz-adv-x="927" d="M94 491q0 115 35 216.5t102 177t164 119.5t222 44q127 0 232 -49v-136q-112 74 -242 74q-91 0 -162 -34.5t-119.5 -94t-74 -139t-25.5 -168.5q0 -82 21.5 -157t66 -132.5t112.5 -91.5t160 -34q144 0 260 86v-126q-114 -69 -276 -71h-5q-107 0 -193 38q-88 39 -150 108.5 t-95 164t-33 205.5z" />
<glyph unicode="d" horiz-adv-x="1176" d="M93 491q0 124 33.5 226.5t95 176t148 114t192.5 40.5q221 0 317 -177h4v645h128v-1516h-128v180h-4q-51 -97 -145.5 -150.5t-214.5 -53.5q-96 0 -174.5 35.5t-134.5 102.5t-86.5 162t-30.5 215zM225 499q0 -97 23 -174t65.5 -130t101.5 -81t131 -28q78 0 140.5 28t106 77 t67 115t23.5 141v171q0 67 -23 125t-64 101t-98.5 68t-126.5 25q-76 0 -140 -30t-109.5 -86.5t-71 -137.5t-25.5 -184z" />
<glyph unicode="e" horiz-adv-x="1052" d="M93 513q0 115 35 213t97 169.5t147 112t186 40.5q99 0 175 -34.5t127.5 -98.5t78.5 -156t27 -206v-64h-740q1 -94 25 -169t69 -127t109.5 -79.5t145.5 -27.5q173 0 327 121v-126q-147 -105 -356 -105q-103 0 -187 36t-143 104.5t-91 168.5t-32 228zM229 601h605 q-3 160 -76 248t-203 88q-65 0 -120.5 -23t-97.5 -66.5t-69.5 -106t-38.5 -140.5z" />
<glyph unicode="f" horiz-adv-x="603" d="M44 912v112h179v172q0 77 19.5 139.5t57.5 107t95.5 68.5t132.5 24q72 0 114 -19v-121q-43 28 -111 28q-180 0 -180 -235v-164h255v-112h-255v-912h-128v912h-179z" />
<glyph unicode="g" horiz-adv-x="1176" d="M93 486q0 126 33 229.5t94 177.5t147.5 114.5t194.5 40.5q217 0 317 -176h4v152h128v-945q0 -285 -129.5 -422.5t-399.5 -137.5q-168 0 -318 75v130q167 -93 318 -93q401 0 401 424v123h-4q-118 -202 -360 -202q-95 0 -173.5 35t-134.5 101t-87 160.5t-31 213.5zM225 496 q0 -94 23 -170t65 -129t101.5 -82t132.5 -29q76 0 138 27.5t106 76t68 114t24 141.5v177q0 64 -23 121t-64 100t-97.5 68.5t-124.5 25.5q-80 0 -144.5 -31t-110 -88t-70 -138.5t-24.5 -183.5z" />
<glyph unicode="h" horiz-adv-x="1127" d="M165 0v1516h128v-669h4q120 201 344 201q171 0 257 -105t86 -310v-633h-128v602q0 172 -62 253.5t-193 81.5q-62 0 -118 -25t-98 -72t-67 -114.5t-25 -152.5v-573h-128z" />
<glyph unicode="i" horiz-adv-x="458" d="M137 1375q0 39 27 64.5t64 25.5q19 0 36 -6.5t29.5 -18.5t20 -28.5t7.5 -36.5q0 -19 -7 -36t-20 -29.5t-29.5 -19.5t-36.5 -7q-37 0 -64 26t-27 66zM165 0v1024h128v-1024h-128z" />
<glyph unicode="j" horiz-adv-x="458" d="M-225 -324q78 -46 148 -46q242 0 242 384v1010h128v-988q0 -254 -90 -386t-287 -132q-70 0 -141 34v124zM137 1375q0 39 27 64.5t64 25.5q19 0 36 -6.5t29.5 -18.5t20 -28.5t7.5 -36.5q0 -19 -7 -36t-20 -29.5t-29.5 -19.5t-36.5 -7q-37 0 -64 26t-27 66z" />
<glyph unicode="k" horiz-adv-x="963" d="M165 0v1516h128v-969h4l447 477h167l-480 -495l518 -529h-181l-471 499h-4v-499h-128z" />
<glyph unicode="l" horiz-adv-x="458" d="M165 0v1516h128v-1516h-128z" />
<glyph unicode="m" horiz-adv-x="1723" d="M165 0v1024h128v-166h4q108 190 315 190q54 0 102 -16.5t86 -46t65.5 -70.5t41.5 -90q54 109 140.5 166t195.5 57q337 0 337 -416v-632h-128v602q0 92 -14 155.5t-43.5 103.5t-75 58t-108.5 18q-56 0 -106 -26.5t-87.5 -73t-59 -109.5t-21.5 -136v-592h-128v615 q0 322 -247 322q-57 0 -106 -25.5t-85.5 -71.5t-57 -110.5t-20.5 -142.5v-587h-128z" />
<glyph unicode="n" horiz-adv-x="1127" d="M165 0v1024h128v-178h4q114 202 343 202q168 0 256 -109t88 -315v-624h-128v590q0 347 -252 347q-67 0 -124 -26.5t-98.5 -73.5t-65 -111.5t-23.5 -139.5v-586h-128z" />
<glyph unicode="o" horiz-adv-x="1174" d="M93 503q0 128 36 229t102.5 171.5t160.5 107.5t210 37q111 0 200 -36.5t151 -105.5t95 -168t33 -225q0 -120 -34.5 -218.5t-98.5 -169.5t-156 -110t-208 -39q-114 0 -204.5 38t-154.5 107.5t-98 166.5t-34 215zM225 505q0 -96 26 -173t73.5 -132t115.5 -84.5t152 -29.5 q86 0 152 28.5t112 83t69.5 133.5t23.5 180q0 207 -92 316.5t-263 109.5q-84 0 -152 -29t-116.5 -84.5t-74.5 -136t-26 -182.5z" />
<glyph unicode="p" horiz-adv-x="1175" d="M165 -471v1495h128v-196h4q57 107 152.5 163.5t215.5 56.5q98 0 175.5 -35.5t131 -100.5t82 -158t28.5 -209q0 -127 -32 -231.5t-92 -179.5t-145.5 -116.5t-192.5 -41.5q-216 0 -323 189h-4v-636h-128zM293 426q0 -70 23.5 -131.5t65.5 -108t101.5 -73.5t131.5 -27 q77 0 139 32.5t105.5 92.5t67 145t23.5 190q0 90 -22 162.5t-62.5 123.5t-98 78t-128.5 27q-80 0 -144 -29.5t-109 -80.5t-69 -119.5t-24 -145.5v-136z" />
<glyph unicode="q" horiz-adv-x="1176" d="M93 492q0 128 34.5 230.5t96.5 175t148.5 111.5t191.5 39q219 0 315 -178h4v154h128v-1495h-128v653h-4q-109 -206 -360 -206q-97 0 -176 36t-134.5 103t-85.5 162.5t-30 214.5zM225 496q0 -96 23 -172t65 -129t100 -81t128 -28q82 0 145.5 28.5t107 77.5t66.5 115 t23 142v163q0 69 -22.5 128.5t-63.5 103t-99 68.5t-129 25q-76 0 -139 -29.5t-108.5 -85.5t-71 -138.5t-25.5 -187.5z" />
<glyph unicode="r" horiz-adv-x="694" d="M165 0v1024h127v-219h4q18 56 45.5 100.5t63.5 75t78.5 46.5t89.5 16q31 0 55.5 -4t44.5 -12v-134q-45 33 -116 33q-51 0 -90 -19.5t-68.5 -52.5t-50 -76.5t-33 -90.5t-18 -95t-5.5 -91v-501h-127z" />
<glyph unicode="s" horiz-adv-x="832" d="M107 41v143q29 -23 63 -41t70 -31t72.5 -19.5t69.5 -6.5q228 0 228 171q0 39 -16 67.5t-46 52t-72 43.5t-95 42q-71 29 -122 59t-84 65.5t-49 78t-16 96.5q0 68 29.5 121t79.5 90t115.5 56.5t137.5 19.5q133 0 232 -50v-135q-115 74 -248 74q-48 0 -87.5 -12t-67.5 -34 t-43.5 -52.5t-15.5 -67.5q0 -38 12 -66.5t37.5 -51.5t66 -44t98.5 -45q74 -30 128 -59.5t89 -64t52 -77t17 -98.5q0 -69 -28.5 -123t-79 -91t-118.5 -56t-148 -19q-155 0 -261 65z" />
<glyph unicode="t" horiz-adv-x="651" d="M33 912v112h180v258l128 42v-300h264v-112h-264v-627q0 -104 34 -150t115 -46q60 0 115 36v-113q-66 -33 -144 -33q-248 0 -248 286v647h-180z" />
<glyph unicode="u" horiz-adv-x="1128" d="M143 422v602h128v-578q0 -184 65.5 -272t200.5 -88q66 0 120.5 25.5t94 72t61.5 111.5t22 144v585h128v-1024h-128v174h-4q-104 -198 -323 -198q-365 0 -365 446z" />
<glyph unicode="v" horiz-adv-x="954" d="M16 1024h141l283 -780q26 -71 33 -125h4q12 72 31 121l293 784h137l-408 -1024h-122z" />
<glyph unicode="w" horiz-adv-x="1433" d="M30 1024h137l225 -794q10 -35 14 -89h8q2 18 6.5 41t12.5 49l248 793h106l222 -795q9 -34 15 -89h8q-1 17 4 39.5t13 49.5l225 795h129l-313 -1024h-128l-217 752q-10 35 -16 91h-4q-2 -15 -6.5 -37t-14.5 -52l-239 -754h-125z" />
<glyph unicode="x" horiz-adv-x="902" d="M30 0l346 501l-335 523h149l213 -359q16 -27 28 -48.5t20 -35.5h4q13 19 24 38.5t23 39.5l226 365h144l-346 -520l336 -504h-154l-208 339q-12 19 -24.5 39t-25.5 43h-4q-5 -10 -15.5 -26.5t-25.5 -41.5l-224 -353h-151z" />
<glyph unicode="y" horiz-adv-x="959" d="M17 1024h142l293 -811q6 -16 11.5 -36.5t10.5 -40.5h5q5 17 9.5 34.5t12.5 38.5l311 815h135l-485 -1210q-60 -150 -138 -222.5t-189 -72.5q-55 0 -93 13v120q22 -8 44.5 -12t45.5 -4q63 0 109.5 39.5t80.5 119.5l89 210z" />
<glyph unicode="z" horiz-adv-x="938" d="M45 0v43l643 869h-590v112h788v-36l-646 -876h631v-112h-826z" />
<glyph unicode="{" horiz-adv-x="598" d="M93 509v90q156 17 156 229v303q0 154 70.5 226.5t210.5 76.5v-106q-85 -5 -122 -55.5t-37 -161.5v-293q0 -217 -148 -262v-4q148 -46 148 -269v-282q0 -58 8 -99t27 -68t49 -40.5t75 -14.5v-105q-140 4 -210.5 76t-70.5 225v298q0 110 -39.5 169t-116.5 67z" />
<glyph unicode="|" horiz-adv-x="476" d="M178 -481v2047h121v-2047h-121z" />
<glyph unicode="}" horiz-adv-x="598" d="M69 -221q41 1 71 13t49.5 37.5t29 67.5t9.5 104v282q0 222 148 269v4q-148 47 -148 262v293q0 59 -10 99.5t-29.5 66t-49.5 37.5t-70 14v106q140 -4 210.5 -76t70.5 -227v-303q0 -214 155 -229v-90q-155 -17 -155 -236v-298q0 -153 -70.5 -225t-210.5 -76v105z" />
<glyph unicode="~" horiz-adv-x="1366" d="M227 459q3 64 22 115t52 87t79.5 55t103.5 19q100 0 215 -84q35 -25 61.5 -42.5t49 -28t42 -15t38.5 -4.5q64 0 101 44t43 125h106q-7 -131 -74 -203.5t-182 -72.5q-103 0 -233 97q-102 75 -168 75q-140 0 -149 -167h-107z" />
<glyph unicode="&#xa1;" horiz-adv-x="582" d="M195 948q0 20 7.5 37.5t21 30.5t31 20.5t37.5 7.5t37 -7.5t30 -20.5t20.5 -30.5t7.5 -37.5q0 -40 -27.5 -67.5t-67.5 -27.5t-68.5 27t-28.5 68zM224 -407l15 1030h110l14 -1030h-139z" />
<glyph unicode="&#xa2;" d="M175 653q0 100 27 190t80.5 163t132.5 124t183 73v206h108v-198q122 -2 223 -49v-138q-102 66 -223 72v-844q128 12 221 83v-126q-93 -57 -221 -69v-193h-108v194q-100 11 -178.5 54t-133 110.5t-83 156.5t-28.5 191zM307 665q0 -70 16.5 -137t52 -122t90.5 -94t132 -54 v829q-73 -17 -127.5 -57t-91 -96t-54.5 -125t-18 -144z" />
<glyph unicode="&#xa3;" d="M93 0v110q233 87 233 339v199h-213v116h213v272q0 93 27.5 170.5t77 133.5t118.5 87t153 31q105 0 198 -38v-125q-96 51 -199 51q-121 0 -184 -82t-63 -243v-257h301v-116h-301v-166q0 -268 -203 -370h726v-112h-884z" />
<glyph unicode="&#xa4;" horiz-adv-x="1138" d="M116 354l138 132q-80 113 -80 239q0 136 80 238l-138 135l76 78l137 -136q111 81 240 81q133 0 239 -81l138 136l76 -78l-138 -135q81 -106 81 -238q0 -126 -81 -239l138 -132l-76 -79l-136 137q-105 -81 -241 -81q-138 0 -240 81l-137 -137zM282 727q0 -58 23 -110.5 t62.5 -92t91.5 -62.5t110 -23t110.5 23t92 62.5t62.5 92t23 110.5q0 59 -23.5 111t-63.5 91t-92 61.5t-108 22.5q-60 0 -112.5 -23t-91.5 -62t-61.5 -91t-22.5 -110z" />
<glyph unicode="&#xa5;" d="M71 1434h147l278 -543q33 -65 47 -104h5q8 27 19.5 54t26.5 55l281 538h138l-369 -673h314v-111h-353v-226h353v-112h-353v-312h-128v312h-358v112h358v226h-358v111h316z" />
<glyph unicode="&#xa6;" horiz-adv-x="476" d="M178 370h121v-851h-121v851zM178 715v851h121v-851h-121z" />
<glyph unicode="&#xa7;" horiz-adv-x="918" d="M148 735q0 167 155 250q-115 82 -115 221q0 62 23 114.5t65.5 90.5t102.5 59t134 21q121 0 207 -40v-127q-92 55 -210 55q-190 0 -190 -166q0 -34 9 -61t36.5 -53.5t78 -56t132.5 -67.5q107 -50 160 -122t53 -164q0 -166 -151 -280q47 -37 68.5 -85t21.5 -109 t-24.5 -112.5t-68.5 -89t-106 -58.5t-136 -21q-119 0 -228 53v128q125 -69 234 -69q97 0 148 44.5t51 116.5q0 54 -34 95q-8 16 -38.5 37.5t-78.5 46.5l-83 44q-61 32 -102 67t-66.5 73t-36.5 79t-11 86zM279 744q0 -42 12.5 -75.5t43.5 -64t83 -60.5t130 -65q55 42 82 87.5 t27 113.5q0 38 -10.5 68t-38.5 58t-78 56.5t-128 62.5q-123 -57 -123 -181z" />
<glyph unicode="&#xa8;" horiz-adv-x="832" d="M147 1288q0 37 25 60.5t59 23.5q18 0 34 -6.5t28 -17.5t19 -26.5t7 -33.5q0 -36 -25 -60.5t-60 -24.5q-18 0 -33.5 6.5t-27.5 18t-19 27t-7 33.5zM508 1288q0 37 24.5 60.5t57.5 23.5q36 0 62 -24t26 -60t-24.5 -60.5t-61.5 -24.5q-33 0 -58.5 23.5t-25.5 61.5z" />
<glyph unicode="&#xa9;" horiz-adv-x="1813" d="M159 714q0 103 26.5 198.5t75.5 179t117 151.5t151.5 117t179 75.5t198.5 26.5t198.5 -26.5t179 -75.5t151.5 -117t117 -151.5t75.5 -179t26.5 -198.5t-26.5 -198.5t-75.5 -179t-117 -151.5t-151.5 -117t-179 -75.5t-198.5 -26.5t-198.5 26.5t-179 75.5t-151.5 117 t-117 151.5t-75.5 179t-26.5 198.5zM240 714q0 -138 52.5 -259.5t143 -212t212 -143t259.5 -52.5t259.5 52.5t212 143t143 212t52.5 259.5t-52.5 259.5t-143 212t-212 143t-259.5 52.5t-259.5 -52.5t-212 -143t-143 -212t-52.5 -259.5zM444 691q0 113 35 211t101.5 170.5 t162.5 114.5t217 42q130 0 233 -54v-118q-99 65 -250 65q-86 0 -156 -31.5t-120 -87t-77.5 -131t-27.5 -162.5q0 -82 27.5 -156t78 -130t122.5 -88.5t162 -32.5q139 0 245 73v-108q-118 -70 -259 -70q-101 0 -191 37t-157.5 102.5t-106.5 156t-39 197.5z" />
<glyph unicode="&#xaa;" horiz-adv-x="774" d="M79 906q0 202 252 236l227 31q0 186 -159 186q-133 0 -254 -89v112q119 73 264 73q126 0 192 -70t66 -204v-464h-109v121h-4q-38 -67 -101.5 -103t-141.5 -36q-53 0 -96 15.5t-73 43.5t-46.5 65.5t-16.5 82.5zM189 911q0 -54 38.5 -87.5t106.5 -33.5q45 0 86.5 19.5 t83.5 68.5q28 32 41 70.5t13 80.5v56l-152 -21q-55 -7 -96 -17.5t-68 -28t-40 -43.5t-13 -64z" />
<glyph unicode="&#xab;" horiz-adv-x="994" d="M110 536l288 344h134l-287 -344l287 -336h-134zM462 536l288 344h134l-287 -344l287 -336h-134z" />
<glyph unicode="&#xac;" horiz-adv-x="1366" d="M222 619v109h924v-528h-109v419h-815z" />
<glyph unicode="&#xad;" horiz-adv-x="817" d="M144 530v110h547v-110h-547z" />
<glyph unicode="&#xae;" horiz-adv-x="1813" d="M256 853q0 251 176.5 426t423.5 175q248 0 425 -175.5t177 -422.5q0 -250 -175.5 -425.5t-425.5 -175.5t-425.5 175t-175.5 423zM345 853q0 -213 147.5 -364.5t360.5 -151.5q214 0 365 151.5t151 364.5q0 214 -151.5 366.5t-364.5 152.5q-211 0 -359.5 -152.5 t-148.5 -366.5zM619 482v772h226q128 0 202 -55.5t74 -147.5q0 -177 -202 -214v-3q58 -14 128 -140l102 -212h-109l-92 190q-40 86 -77.5 115.5t-84.5 29.5h-70v-335h-97zM716 898h132q78 0 125 35t47 105q0 136 -191 136h-113v-276z" />
<glyph unicode="&#xaf;" horiz-adv-x="850" d="M0 1411v105h850v-105h-850z" />
<glyph unicode="&#xb0;" horiz-adv-x="781" d="M126 1177q0 55 20.5 103t56.5 84t84 57t103 21t103 -21t84 -57t57 -84t21 -103t-21 -103t-57 -84t-84 -56.5t-103 -20.5t-103 20.5t-84 56.5t-56.5 84t-20.5 103zM227 1178q0 -34 12.5 -64.5t35 -53.5t52.5 -36.5t64 -13.5t63.5 14t51.5 37.5t34.5 53.5t12.5 63 q0 34 -11.5 64t-33 53t-51.5 36.5t-66 13.5q-35 0 -65 -13.5t-52 -36.5t-34.5 -53t-12.5 -64z" />
<glyph unicode="&#xb1;" horiz-adv-x="1366" d="M222 0v108h924v-108h-924zM222 642v108h409v408h107v-408h408v-108h-408v-408h-107v408h-409z" />
<glyph unicode="&#xb2;" horiz-adv-x="712" d="M91 884v107l239 235q57 56 91 95.5t52 71.5t24 59t6 57q0 68 -38 105t-110 37q-115 0 -219 -100v126q98 77 231 77q59 0 105 -17t78.5 -47.5t49.5 -73.5t17 -94q0 -38 -11 -77.5t-36 -82.5t-65.5 -91.5t-99.5 -105.5l-178 -171v-4h400v-106h-536z" />
<glyph unicode="&#xb3;" horiz-adv-x="712" d="M108 911v119q103 -70 206 -70q86 0 134 42t48 114q0 154 -227 154h-77v99h71q206 0 206 153q0 128 -149 128q-84 0 -179 -61v115q93 48 202 48q53 0 96.5 -15t74.5 -43t47.5 -67t16.5 -86q0 -157 -146 -210v-4q87 -20 131 -74t44 -134q0 -57 -21 -104t-59.5 -81.5 t-93 -53.5t-122.5 -19q-121 0 -203 50z" />
<glyph unicode="&#xb4;" horiz-adv-x="543" d="M136 1203l228 328h135l-255 -328h-108z" />
<glyph unicode="&#xb5;" horiz-adv-x="1149" d="M165 -393v1417h127v-598q0 -163 67 -249.5t200 -86.5q67 0 121.5 25.5t93.5 71.5t60 110.5t21 143.5v583h129v-764q0 -79 4 -144t12 -116h-131q-12 83 -12 177h-4q-94 -201 -305 -201q-172 0 -250 123h-6v-492h-127z" />
<glyph unicode="&#xb6;" horiz-adv-x="954" d="M98 1168q0 60 20.5 109t55.5 84t81.5 54t98.5 19h495v-95h-130v-1339h-96v1339h-178v-1339h-97v903q-54 0 -99.5 20.5t-79 56t-52.5 84t-19 104.5z" />
<glyph unicode="&#xb7;" horiz-adv-x="449" d="M128 704q0 41 27.5 69t68.5 28q20 0 37.5 -7.5t30.5 -20t21 -30.5t8 -39q0 -20 -8 -37.5t-21 -30.5t-30.5 -20.5t-37.5 -7.5q-40 0 -68 28t-28 68z" />
<glyph unicode="&#xb8;" horiz-adv-x="416" d="M54 -348q47 -6 78 -6q150 0 150 91q0 82 -137 82q-11 0 -23.5 -1t-28.5 -3v185h90v-111q100 0 154 -38t54 -111q0 -173 -265 -173q-37 0 -72 3v82z" />
<glyph unicode="&#xb9;" horiz-adv-x="712" d="M135 1556v107l309 95v-777h190v-97h-488v97h190v638z" />
<glyph unicode="&#xba;" horiz-adv-x="846" d="M75 1071q0 90 26.5 161.5t74.5 120.5t115 75t148 26q80 0 144 -26t109 -74.5t69 -118t24 -156.5q0 -84 -25 -154.5t-71.5 -121.5t-112.5 -79t-148 -28q-81 0 -146.5 27t-111.5 76.5t-70.5 118.5t-24.5 153zM189 1072q0 -64 16.5 -115.5t48 -88t76.5 -56t102 -19.5 q56 0 100.5 19.5t75 56t47 89t16.5 118.5t-16 118.5t-47 89t-74.5 56t-99.5 19.5t-101 -20t-77 -57t-49.5 -90.5t-17.5 -119.5z" />
<glyph unicode="&#xbb;" horiz-adv-x="994" d="M110 200l287 344l-287 336h134l288 -336l-288 -344h-134zM462 200l287 344l-287 336h134l288 -336l-288 -344h-134z" />
<glyph unicode="&#xbc;" horiz-adv-x="1513" d="M116 1256v107l309 95v-777h190v-97h-488v97h190v638zM323 0l860 1434h120l-859 -1434h-121zM865 212v78l377 561h123v-545h110v-94h-110v-211h-107v211h-393zM983 306h275v345q0 36 3 82h-4q-22 -46 -42 -75z" />
<glyph unicode="&#xbd;" horiz-adv-x="1647" d="M116 1256v107l309 95v-777h190v-97h-488v97h190v638zM323 0l860 1434h120l-859 -1434h-121zM1011 1v107l239 235q57 56 91 95.5t52 71.5t24 59t6 57q0 68 -38 105t-110 37q-115 0 -219 -100v126q98 77 231 77q59 0 105 -17t78.5 -47.5t49.5 -73.5t17 -94q0 -38 -11 -77.5 t-36 -82.5t-65.5 -91.5t-99.5 -105.5l-178 -171v-4h400v-106h-536z" />
<glyph unicode="&#xbe;" horiz-adv-x="1513" d="M89 611v119q103 -70 206 -70q86 0 134 42t48 114q0 154 -227 154h-77v99h71q206 0 206 153q0 128 -149 128q-84 0 -179 -61v115q93 48 202 48q53 0 96.5 -15t74.5 -43t47.5 -67t16.5 -86q0 -157 -146 -210v-4q87 -20 131 -74t44 -134q0 -57 -21 -104t-59.5 -81.5 t-93 -53.5t-122.5 -19q-121 0 -203 50zM323 0l860 1434h120l-859 -1434h-121zM865 212v78l377 561h123v-545h110v-94h-110v-211h-107v211h-393zM983 306h275v345q0 36 3 82h-4q-22 -46 -42 -75z" />
<glyph unicode="&#xbf;" horiz-adv-x="899" d="M143 -117q0 56 15.5 102.5t41 86.5t57.5 74.5t66 67.5q43 41 75.5 73.5t54.5 63t33.5 61.5t11.5 69q0 46 -9 83.5t-19 63.5h121q9 -26 16.5 -66.5t7.5 -81.5q0 -51 -16 -93t-42.5 -79t-60.5 -71t-71 -69q-30 -28 -57.5 -57.5t-48.5 -62t-34 -69.5t-13 -80q0 -52 18.5 -92 t51 -67.5t77 -42t95.5 -14.5q90 0 166 32.5t142 95.5v-142q-74 -51 -153 -76t-168 -25q-75 0 -140 20.5t-113.5 60.5t-76.5 98.5t-28 135.5zM432 948q0 20 7.5 37.5t21 30.5t31 20.5t36.5 7.5q20 0 37 -7.5t30 -20.5t20.5 -30.5t7.5 -37.5t-7.5 -37.5t-20.5 -30t-30 -20 t-37 -7.5q-42 0 -69 27.5t-27 67.5z" />
<glyph unicode="&#xc0;" horiz-adv-x="1303" d="M40 0l546 1434h134l543 -1434h-148l-158 424h-615l-154 -424h-148zM387 545h525l-234 638q-7 19 -14.5 44t-12.5 57h-4q-6 -32 -13.5 -57t-14.5 -44zM420 1879h136l227 -328h-108z" />
<glyph unicode="&#xc1;" horiz-adv-x="1303" d="M40 0l546 1434h134l543 -1434h-148l-158 424h-615l-154 -424h-148zM387 545h525l-234 638q-7 19 -14.5 44t-12.5 57h-4q-6 -32 -13.5 -57t-14.5 -44zM476 1551l228 328h135l-255 -328h-108z" />
<glyph unicode="&#xc2;" horiz-adv-x="1303" d="M40 0l546 1434h134l543 -1434h-148l-158 424h-615l-154 -424h-148zM381 1551l218 334h89l218 -334h-104l-161 234l-162 -234h-98zM387 545h525l-234 638q-7 19 -14.5 44t-12.5 57h-4q-6 -32 -13.5 -57t-14.5 -44z" />
<glyph unicode="&#xc3;" horiz-adv-x="1303" d="M40 0l546 1434h134l543 -1434h-148l-158 424h-615l-154 -424h-148zM339 1543q0 51 12.5 93t35.5 72t56 46.5t75 16.5q68 0 154 -62q71 -51 123 -51q41 0 65.5 32.5t24.5 97.5h86q0 -51 -12.5 -93t-35.5 -72.5t-56 -47.5t-75 -17q-68 0 -156 64q-70 49 -119 49 q-95 0 -95 -128h-83zM387 545h525l-234 638q-7 19 -14.5 44t-12.5 57h-4q-6 -32 -13.5 -57t-14.5 -44z" />
<glyph unicode="&#xc4;" horiz-adv-x="1303" d="M40 0l546 1434h134l543 -1434h-148l-158 424h-615l-154 -424h-148zM380 1636q0 37 25 60.5t59 23.5q18 0 34 -6.5t28 -17.5t19 -26.5t7 -33.5q0 -36 -25 -60.5t-60 -24.5q-18 0 -33.5 6.5t-27.5 18t-19 27t-7 33.5zM387 545h525l-234 638q-7 19 -14.5 44t-12.5 57h-4 q-6 -32 -13.5 -57t-14.5 -44zM741 1636q0 37 24.5 60.5t57.5 23.5q36 0 62 -24t26 -60t-24.5 -60.5t-61.5 -24.5q-33 0 -58.5 23.5t-25.5 61.5z" />
<glyph unicode="&#xc5;" horiz-adv-x="1304" d="M40 0l524 1376q-117 47 -117 170q0 42 16 77.5t44 61t65.5 39.5t80.5 14t79.5 -14t63.5 -38.5t42.5 -59.5t15.5 -77q0 -120 -114 -170l523 -1379h-148l-158 424h-615l-154 -424h-148zM387 545h525l-222 606q-11 29 -20.5 58.5t-18.5 74.5h-4q-6 -32 -13.5 -57t-14.5 -44z M530 1549q0 -55 32 -85t88 -30q53 0 87.5 32t34.5 83q0 26 -9.5 47t-26 36t-38.5 23t-48 8q-54 0 -87 -31.5t-33 -82.5z" />
<glyph unicode="&#xc6;" horiz-adv-x="1734" d="M13 0l698 1434h864v-125h-566v-524h525v-120h-525v-544h598v-121h-730v424h-506l-206 -424h-152zM426 545h451v764h-87z" />
<glyph unicode="&#xc7;" horiz-adv-x="1270" d="M101 689q0 163 50.5 303.5t144.5 244t227.5 162.5t299.5 59q183 0 327 -56v-142q-154 77 -329 77q-139 0 -247 -48t-182 -133.5t-113 -202t-39 -254.5q0 -124 35 -233.5t103.5 -191.5t170.5 -130t237 -48q207 0 364 87v-130q-166 -78 -379 -78q-152 0 -276 53.5 t-211.5 148.5t-135 226t-47.5 286zM615 -348q47 -6 78 -6q150 0 150 91q0 82 -137 82q-11 0 -23.5 -1t-28.5 -3v185h90v-111q100 0 154 -38t54 -111q0 -173 -265 -173q-37 0 -72 3v82z" />
<glyph unicode="&#xc8;" horiz-adv-x="1030" d="M186 0v1434h699v-122h-566v-526h524v-120h-524v-545h598v-121h-731zM311 1879h136l227 -328h-108z" />
<glyph unicode="&#xc9;" horiz-adv-x="1030" d="M186 0v1434h699v-122h-566v-526h524v-120h-524v-545h598v-121h-731zM415 1551l228 328h135l-255 -328h-108z" />
<glyph unicode="&#xca;" horiz-adv-x="1030" d="M186 0v1434h699v-122h-566v-526h524v-120h-524v-545h598v-121h-731zM281 1551l218 334h89l218 -334h-104l-161 234l-162 -234h-98z" />
<glyph unicode="&#xcb;" horiz-adv-x="1030" d="M186 0v1434h699v-122h-566v-526h524v-120h-524v-545h598v-121h-731zM286 1636q0 37 25 60.5t59 23.5q18 0 34 -6.5t28 -17.5t19 -26.5t7 -33.5q0 -36 -25 -60.5t-60 -24.5q-18 0 -33.5 6.5t-27.5 18t-19 27t-7 33.5zM647 1636q0 37 24.5 60.5t57.5 23.5q36 0 62 -24 t26 -60t-24.5 -60.5t-61.5 -24.5q-33 0 -58.5 23.5t-25.5 61.5z" />
<glyph unicode="&#xcc;" horiz-adv-x="506" d="M-4 1879h136l227 -328h-108zM186 0v1434h133v-1434h-133z" />
<glyph unicode="&#xcd;" horiz-adv-x="506" d="M145 1551l228 328h135l-255 -328h-108zM186 0v1434h133v-1434h-133z" />
<glyph unicode="&#xce;" horiz-adv-x="506" d="M-7 1551l218 334h89l218 -334h-104l-161 234l-162 -234h-98zM186 0v1434h133v-1434h-133z" />
<glyph unicode="&#xcf;" horiz-adv-x="506" d="M-11 1636q0 37 25 60.5t59 23.5q18 0 34 -6.5t28 -17.5t19 -26.5t7 -33.5q0 -36 -25 -60.5t-60 -24.5q-18 0 -33.5 6.5t-27.5 18t-19 27t-7 33.5zM186 0v1434h133v-1434h-133zM350 1636q0 37 24.5 60.5t57.5 23.5q36 0 62 -24t26 -60t-24.5 -60.5t-61.5 -24.5 q-33 0 -58.5 23.5t-25.5 61.5z" />
<glyph unicode="&#xd0;" horiz-adv-x="1408" d="M31 654v122h155v658h377q368 0 556 -176.5t188 -521.5q0 -166 -52.5 -302t-151.5 -232.5t-240 -149t-318 -52.5h-359v654h-155zM319 121h220q148 0 264.5 40t197.5 117.5t123.5 191.5t42.5 262q0 580 -613 580h-235v-536h370v-122h-370v-533z" />
<glyph unicode="&#xd1;" horiz-adv-x="1492" d="M186 0v1434h147l783 -1137q18 -27 32.5 -50.5t26.5 -43.5h5q-4 33 -6 74t-2 91v1066h134v-1434h-138l-796 1151q-15 22 -29.5 45t-23.5 45h-5q2 -18 3.5 -50t1.5 -80v-1111h-133zM475 1543q0 51 12.5 93t35.5 72t56 46.5t75 16.5q68 0 154 -62q71 -51 123 -51 q41 0 65.5 32.5t24.5 97.5h86q0 -51 -12.5 -93t-35.5 -72.5t-56 -47.5t-75 -17q-68 0 -156 64q-70 49 -119 49q-95 0 -95 -128h-83z" />
<glyph unicode="&#xd2;" horiz-adv-x="1551" d="M101 701q0 168 46.5 307.5t135.5 239t218 155t294 55.5q152 0 273 -54.5t206 -151t130.5 -228.5t45.5 -287q0 -163 -44.5 -302.5t-131 -241.5t-213 -160t-291.5 -58q-155 0 -279 56.5t-210.5 154.5t-133 230.5t-46.5 284.5zM240 714q-1 -122 31.5 -233.5t98 -197 t165.5 -136.5t234 -51t235.5 46.5t169.5 129t102.5 196.5t34.5 249q0 126 -30.5 239t-95 197.5t-164.5 134t-240 49.5q-130 0 -230.5 -49.5t-169.5 -134t-104.5 -198t-36.5 -241.5zM554 1879h136l227 -328h-108z" />
<glyph unicode="&#xd3;" horiz-adv-x="1551" d="M101 701q0 168 46.5 307.5t135.5 239t218 155t294 55.5q152 0 273 -54.5t206 -151t130.5 -228.5t45.5 -287q0 -163 -44.5 -302.5t-131 -241.5t-213 -160t-291.5 -58q-155 0 -279 56.5t-210.5 154.5t-133 230.5t-46.5 284.5zM240 714q-1 -122 31.5 -233.5t98 -197 t165.5 -136.5t234 -51t235.5 46.5t169.5 129t102.5 196.5t34.5 249q0 126 -30.5 239t-95 197.5t-164.5 134t-240 49.5q-130 0 -230.5 -49.5t-169.5 -134t-104.5 -198t-36.5 -241.5zM640 1551l228 328h135l-255 -328h-108z" />
<glyph unicode="&#xd4;" horiz-adv-x="1551" d="M101 701q0 168 46.5 307.5t135.5 239t218 155t294 55.5q152 0 273 -54.5t206 -151t130.5 -228.5t45.5 -287q0 -163 -44.5 -302.5t-131 -241.5t-213 -160t-291.5 -58q-155 0 -279 56.5t-210.5 154.5t-133 230.5t-46.5 284.5zM240 714q-1 -122 31.5 -233.5t98 -197 t165.5 -136.5t234 -51t235.5 46.5t169.5 129t102.5 196.5t34.5 249q0 126 -30.5 239t-95 197.5t-164.5 134t-240 49.5q-130 0 -230.5 -49.5t-169.5 -134t-104.5 -198t-36.5 -241.5zM517 1551l218 334h89l218 -334h-104l-161 234l-162 -234h-98z" />
<glyph unicode="&#xd5;" horiz-adv-x="1551" d="M101 701q0 168 46.5 307.5t135.5 239t218 155t294 55.5q152 0 273 -54.5t206 -151t130.5 -228.5t45.5 -287q0 -163 -44.5 -302.5t-131 -241.5t-213 -160t-291.5 -58q-155 0 -279 56.5t-210.5 154.5t-133 230.5t-46.5 284.5zM240 714q-1 -122 31.5 -233.5t98 -197 t165.5 -136.5t234 -51t235.5 46.5t169.5 129t102.5 196.5t34.5 249q0 126 -30.5 239t-95 197.5t-164.5 134t-240 49.5q-130 0 -230.5 -49.5t-169.5 -134t-104.5 -198t-36.5 -241.5zM465 1543q0 51 12.5 93t35.5 72t56 46.5t75 16.5q68 0 154 -62q71 -51 123 -51 q41 0 65.5 32.5t24.5 97.5h86q0 -51 -12.5 -93t-35.5 -72.5t-56 -47.5t-75 -17q-68 0 -156 64q-70 49 -119 49q-95 0 -95 -128h-83z" />
<glyph unicode="&#xd6;" horiz-adv-x="1551" d="M101 701q0 168 46.5 307.5t135.5 239t218 155t294 55.5q152 0 273 -54.5t206 -151t130.5 -228.5t45.5 -287q0 -163 -44.5 -302.5t-131 -241.5t-213 -160t-291.5 -58q-155 0 -279 56.5t-210.5 154.5t-133 230.5t-46.5 284.5zM240 714q-1 -122 31.5 -233.5t98 -197 t165.5 -136.5t234 -51t235.5 46.5t169.5 129t102.5 196.5t34.5 249q0 126 -30.5 239t-95 197.5t-164.5 134t-240 49.5q-130 0 -230.5 -49.5t-169.5 -134t-104.5 -198t-36.5 -241.5zM513 1636q0 37 25 60.5t59 23.5q18 0 34 -6.5t28 -17.5t19 -26.5t7 -33.5q0 -36 -25 -60.5 t-60 -24.5q-18 0 -33.5 6.5t-27.5 18t-19 27t-7 33.5zM874 1636q0 37 24.5 60.5t57.5 23.5q36 0 62 -24t26 -60t-24.5 -60.5t-61.5 -24.5q-33 0 -58.5 23.5t-25.5 61.5z" />
<glyph unicode="&#xd7;" horiz-adv-x="1366" d="M270 260l337 336l-337 338l77 76l336 -338l336 338l77 -76l-337 -338l337 -336l-77 -77l-336 338l-336 -338z" />
<glyph unicode="&#xd8;" horiz-adv-x="1551" d="M89 5l171 204q-78 97 -118.5 222.5t-40.5 269.5q0 168 46.5 307.5t135.5 239t218 155t294 55.5q120 0 220 -34t180 -97l138 165l71 -58l-142 -169q91 -97 139.5 -232t48.5 -296q0 -163 -44.5 -302.5t-131 -241.5t-213 -160t-291.5 -58q-138 0 -250 44t-197 123l-164 -195 zM240 714q-1 -112 25.5 -215t81.5 -186l766 916q-63 51 -144.5 79.5t-187.5 28.5q-130 0 -230.5 -49.5t-169.5 -134t-104.5 -198t-36.5 -241.5zM405 241q66 -68 156 -106.5t208 -38.5q134 0 235.5 46.5t169.5 129t102.5 196.5t34.5 249q0 131 -32.5 246t-101.5 200z" />
<glyph unicode="&#xd9;" horiz-adv-x="1367" d="M168 554v880h133v-868q0 -236 95 -353t294 -117q376 0 376 456v882h133v-858q0 -601 -528 -601q-503 0 -503 579zM438 1879h136l227 -328h-108z" />
<glyph unicode="&#xda;" horiz-adv-x="1367" d="M168 554v880h133v-868q0 -236 95 -353t294 -117q376 0 376 456v882h133v-858q0 -601 -528 -601q-503 0 -503 579zM572 1551l228 328h135l-255 -328h-108z" />
<glyph unicode="&#xdb;" horiz-adv-x="1367" d="M168 554v880h133v-868q0 -236 95 -353t294 -117q376 0 376 456v882h133v-858q0 -601 -528 -601q-503 0 -503 579zM441 1551l218 334h89l218 -334h-104l-161 234l-162 -234h-98z" />
<glyph unicode="&#xdc;" horiz-adv-x="1367" d="M168 554v880h133v-868q0 -236 95 -353t294 -117q376 0 376 456v882h133v-858q0 -601 -528 -601q-503 0 -503 579zM432 1636q0 37 25 60.5t59 23.5q18 0 34 -6.5t28 -17.5t19 -26.5t7 -33.5q0 -36 -25 -60.5t-60 -24.5q-18 0 -33.5 6.5t-27.5 18t-19 27t-7 33.5zM793 1636 q0 37 24.5 60.5t57.5 23.5q36 0 62 -24t26 -60t-24.5 -60.5t-61.5 -24.5q-33 0 -58.5 23.5t-25.5 61.5z" />
<glyph unicode="&#xdd;" horiz-adv-x="1119" d="M34 1434h151l328 -670q6 -12 16 -36t24 -61h3q6 18 17 42t27 54l343 671h142l-468 -897v-537h-133v534zM437 1551l228 328h135l-255 -328h-108z" />
<glyph unicode="&#xde;" horiz-adv-x="1130" d="M186 0v1434h133v-232h237q231 0 350 -106t119 -310q0 -111 -39.5 -196.5t-108.5 -144t-162.5 -89t-201.5 -30.5h-194v-326h-133zM319 448h190q183 0 280 84.5t97 242.5q0 305 -354 305h-213v-632z" />
<glyph unicode="&#xdf;" horiz-adv-x="1087" d="M165 1v1114q0 97 27.5 174.5t78 132t122.5 84t160 29.5q78 0 142 -24.5t109.5 -69t71 -107t25.5 -139.5q0 -64 -18 -121.5t-52 -105t-83 -84.5t-110 -61v-4q180 -42 275.5 -152.5t95.5 -276.5q0 -88 -29 -164t-81.5 -131.5t-127 -87t-164.5 -31.5q-87 0 -162 22v127 q75 -39 156 -39q63 0 114 21.5t87 60.5t55.5 93.5t19.5 121.5q0 76 -26.5 138.5t-77.5 110.5t-124.5 80t-168.5 45v105q67 13 120.5 41t91 69t57.5 93t20 113q0 115 -60 180t-166 65q-122 0 -186 -83.5t-64 -243.5v-1095h-128z" />
<glyph unicode="&#xe0;" horiz-adv-x="1026" d="M98 268q0 139 86 221.5t260 107.5l311 45q0 295 -229 295q-179 0 -332 -131v140q32 23 72.5 41.5t85.5 32t92.5 21t92.5 7.5q171 0 258.5 -96t87.5 -286v-666h-128v182h-4q-50 -98 -136.5 -152t-195.5 -54q-74 0 -133.5 21t-101 59.5t-64 92.5t-22.5 119zM230 276 q0 -41 14.5 -76t42 -60.5t67 -39.5t89.5 -14q68 0 125 26t98.5 72t65 110t23.5 139v101l-264 -37q-69 -10 -118 -25t-81 -40.5t-47 -63t-15 -92.5zM278 1531h136l227 -328h-108z" />
<glyph unicode="&#xe1;" horiz-adv-x="1026" d="M98 268q0 139 86 221.5t260 107.5l311 45q0 295 -229 295q-179 0 -332 -131v140q32 23 72.5 41.5t85.5 32t92.5 21t92.5 7.5q171 0 258.5 -96t87.5 -286v-666h-128v182h-4q-50 -98 -136.5 -152t-195.5 -54q-74 0 -133.5 21t-101 59.5t-64 92.5t-22.5 119zM230 276 q0 -41 14.5 -76t42 -60.5t67 -39.5t89.5 -14q68 0 125 26t98.5 72t65 110t23.5 139v101l-264 -37q-69 -10 -118 -25t-81 -40.5t-47 -63t-15 -92.5zM365 1203l228 328h135l-255 -328h-108z" />
<glyph unicode="&#xe2;" horiz-adv-x="1026" d="M98 268q0 139 86 221.5t260 107.5l311 45q0 295 -229 295q-179 0 -332 -131v140q32 23 72.5 41.5t85.5 32t92.5 21t92.5 7.5q171 0 258.5 -96t87.5 -286v-666h-128v182h-4q-50 -98 -136.5 -152t-195.5 -54q-74 0 -133.5 21t-101 59.5t-64 92.5t-22.5 119zM230 276 q0 -41 14.5 -76t42 -60.5t67 -39.5t89.5 -14q68 0 125 26t98.5 72t65 110t23.5 139v101l-264 -37q-69 -10 -118 -25t-81 -40.5t-47 -63t-15 -92.5zM256 1203l218 334h89l218 -334h-104l-161 234l-162 -234h-98z" />
<glyph unicode="&#xe3;" horiz-adv-x="1026" d="M98 268q0 139 86 221.5t260 107.5l311 45q0 295 -229 295q-179 0 -332 -131v140q32 23 72.5 41.5t85.5 32t92.5 21t92.5 7.5q171 0 258.5 -96t87.5 -286v-666h-128v182h-4q-50 -98 -136.5 -152t-195.5 -54q-74 0 -133.5 21t-101 59.5t-64 92.5t-22.5 119zM202 1195 q0 51 12.5 93t35.5 72t56 46.5t75 16.5q68 0 154 -62q71 -51 123 -51q41 0 65.5 32.5t24.5 97.5h86q0 -51 -12.5 -93t-35.5 -72.5t-56 -47.5t-75 -17q-68 0 -156 64q-70 49 -119 49q-95 0 -95 -128h-83zM230 276q0 -41 14.5 -76t42 -60.5t67 -39.5t89.5 -14q68 0 125 26 t98.5 72t65 110t23.5 139v101l-264 -37q-69 -10 -118 -25t-81 -40.5t-47 -63t-15 -92.5z" />
<glyph unicode="&#xe4;" horiz-adv-x="1026" d="M98 268q0 139 86 221.5t260 107.5l311 45q0 295 -229 295q-179 0 -332 -131v140q32 23 72.5 41.5t85.5 32t92.5 21t92.5 7.5q171 0 258.5 -96t87.5 -286v-666h-128v182h-4q-50 -98 -136.5 -152t-195.5 -54q-74 0 -133.5 21t-101 59.5t-64 92.5t-22.5 119zM230 276 q0 -41 14.5 -76t42 -60.5t67 -39.5t89.5 -14q68 0 125 26t98.5 72t65 110t23.5 139v101l-264 -37q-69 -10 -118 -25t-81 -40.5t-47 -63t-15 -92.5zM241 1288q0 37 25 60.5t59 23.5q18 0 34 -6.5t28 -17.5t19 -26.5t7 -33.5q0 -36 -25 -60.5t-60 -24.5q-18 0 -33.5 6.5 t-27.5 18t-19 27t-7 33.5zM602 1288q0 37 24.5 60.5t57.5 23.5q36 0 62 -24t26 -60t-24.5 -60.5t-61.5 -24.5q-33 0 -58.5 23.5t-25.5 61.5z" />
<glyph unicode="&#xe5;" horiz-adv-x="1026" d="M98 268q0 139 86 221.5t260 107.5l311 45q0 295 -229 295q-179 0 -332 -131v140q32 23 72.5 41.5t85.5 32t92.5 21t92.5 7.5q171 0 258.5 -96t87.5 -286v-666h-128v182h-4q-50 -98 -136.5 -152t-195.5 -54q-74 0 -133.5 21t-101 59.5t-64 92.5t-22.5 119zM230 276 q0 -41 14.5 -76t42 -60.5t67 -39.5t89.5 -14q68 0 125 26t98.5 72t65 110t23.5 139v101l-264 -37q-69 -10 -118 -25t-81 -40.5t-47 -63t-15 -92.5zM317 1369q0 42 16 77t44 60.5t65 39.5t80 14q39 0 75.5 -13t64.5 -37.5t45 -59.5t17 -78q0 -41 -16.5 -75.5t-45 -60 t-65.5 -40t-79 -14.5q-40 0 -76 13t-64 37t-44.5 59t-16.5 78zM399 1371q0 -55 32 -85t87 -30q27 0 49.5 8.5t39 24t25.5 36.5t9 46q0 53 -35 84t-88 31t-86 -32t-33 -83z" />
<glyph unicode="&#xe6;" horiz-adv-x="1711" d="M98 268q0 146 96.5 228t287.5 92l273 14q0 335 -227 335q-180 0 -334 -128v137q155 102 348 102q232 0 298 -227h4q120 227 369 227q99 0 175.5 -34.5t129 -99t79.5 -156t27 -206.5v-63h-742q1 -95 25 -170t69 -126.5t109.5 -79t145.5 -27.5q176 0 328 121v-126 q-145 -105 -356 -105q-136 0 -235.5 65.5t-151.5 190.5h-4q-139 -256 -389 -256q-76 0 -136.5 20.5t-102.5 59t-64 92.5t-22 120zM229 272q0 -43 15 -77.5t43.5 -58.5t68.5 -37t89 -13q63 0 119.5 26t99 71t67 105.5t24.5 129.5v72l-181 -8q-85 -4 -150 -14t-108 -32.5 t-65 -62t-22 -101.5zM885 601h607q-5 161 -77 248.5t-202 87.5q-65 0 -120.5 -23t-98 -66.5t-70.5 -105.5t-39 -141z" />
<glyph unicode="&#xe7;" horiz-adv-x="927" d="M94 491q0 115 35 216.5t102 177t164 119.5t222 44q127 0 232 -49v-136q-112 74 -242 74q-91 0 -162 -34.5t-119.5 -94t-74 -139t-25.5 -168.5q0 -82 21.5 -157t66 -132.5t112.5 -91.5t160 -34q144 0 260 86v-126q-114 -69 -276 -71q-110 -1 -198 38t-150 108.5t-95 164 t-33 205.5zM422 -348q47 -6 78 -6q150 0 150 91q0 82 -137 82q-11 0 -23.5 -1t-28.5 -3v185h90v-111q100 0 154 -38t54 -111q0 -173 -265 -173q-37 0 -72 3v82z" />
<glyph unicode="&#xe8;" horiz-adv-x="1052" d="M93 513q0 115 35 213t97 169.5t147 112t186 40.5q99 0 175 -34.5t127.5 -98.5t78.5 -156t27 -206v-64h-740q1 -94 25 -169t69 -127t109.5 -79.5t145.5 -27.5q173 0 327 121v-126q-147 -105 -356 -105q-103 0 -187 36t-143 104.5t-91 168.5t-32 228zM229 601h605 q-3 160 -76 248t-203 88q-65 0 -120.5 -23t-97.5 -66.5t-69.5 -106t-38.5 -140.5zM328 1531h136l227 -328h-108z" />
<glyph unicode="&#xe9;" horiz-adv-x="1052" d="M93 513q0 115 35 213t97 169.5t147 112t186 40.5q99 0 175 -34.5t127.5 -98.5t78.5 -156t27 -206v-64h-740q1 -94 25 -169t69 -127t109.5 -79.5t145.5 -27.5q173 0 327 121v-126q-147 -105 -356 -105q-103 0 -187 36t-143 104.5t-91 168.5t-32 228zM229 601h605 q-3 160 -76 248t-203 88q-65 0 -120.5 -23t-97.5 -66.5t-69.5 -106t-38.5 -140.5zM402 1203l228 328h135l-255 -328h-108z" />
<glyph unicode="&#xea;" horiz-adv-x="1052" d="M93 513q0 115 35 213t97 169.5t147 112t186 40.5q99 0 175 -34.5t127.5 -98.5t78.5 -156t27 -206v-64h-740q1 -94 25 -169t69 -127t109.5 -79.5t145.5 -27.5q173 0 327 121v-126q-147 -105 -356 -105q-103 0 -187 36t-143 104.5t-91 168.5t-32 228zM229 601h605 q-3 160 -76 248t-203 88q-65 0 -120.5 -23t-97.5 -66.5t-69.5 -106t-38.5 -140.5zM290 1203l218 334h89l218 -334h-104l-161 234l-162 -234h-98z" />
<glyph unicode="&#xeb;" horiz-adv-x="1052" d="M93 513q0 115 35 213t97 169.5t147 112t186 40.5q99 0 175 -34.5t127.5 -98.5t78.5 -156t27 -206v-64h-740q1 -94 25 -169t69 -127t109.5 -79.5t145.5 -27.5q173 0 327 121v-126q-147 -105 -356 -105q-103 0 -187 36t-143 104.5t-91 168.5t-32 228zM229 601h605 q-3 160 -76 248t-203 88q-65 0 -120.5 -23t-97.5 -66.5t-69.5 -106t-38.5 -140.5zM278 1288q0 37 25 60.5t59 23.5q18 0 34 -6.5t28 -17.5t19 -26.5t7 -33.5q0 -36 -25 -60.5t-60 -24.5q-18 0 -33.5 6.5t-27.5 18t-19 27t-7 33.5zM639 1288q0 37 24.5 60.5t57.5 23.5 q36 0 62 -24t26 -60t-24.5 -60.5t-61.5 -24.5q-33 0 -58.5 23.5t-25.5 61.5z" />
<glyph unicode="&#xec;" horiz-adv-x="458" d="M-48 1531h136l227 -328h-108zM165 0v1024h128v-1024h-128z" />
<glyph unicode="&#xed;" horiz-adv-x="458" d="M136 1203l228 328h135l-255 -328h-108zM165 0v1024h128v-1024h-128z" />
<glyph unicode="&#xee;" horiz-adv-x="458" d="M-32 1203l218 334h89l218 -334h-104l-161 234l-162 -234h-98zM165 0v1024h128v-1024h-128z" />
<glyph unicode="&#xef;" horiz-adv-x="458" d="M-35 1288q0 37 25 60.5t59 23.5q18 0 34 -6.5t28 -17.5t19 -26.5t7 -33.5q0 -36 -25 -60.5t-60 -24.5q-18 0 -33.5 6.5t-27.5 18t-19 27t-7 33.5zM165 0v1024h128v-1024h-128zM326 1288q0 37 24.5 60.5t57.5 23.5q36 0 62 -24t26 -60t-24.5 -60.5t-61.5 -24.5 q-33 0 -58.5 23.5t-25.5 61.5z" />
<glyph unicode="&#xf0;" horiz-adv-x="1117" d="M93 503q0 120 33.5 220t95.5 172t149 112t195 40q136 0 227 -85l4 4q-97 173 -208 281l-299 -150l-43 84l273 132q-123 110 -258 201h185q39 -28 83.5 -64t95.5 -81l295 146l45 -82l-272 -133q81 -81 143 -172t103 -190.5t62 -205t21 -214.5q0 -117 -32 -216t-92 -171.5 t-146.5 -113t-195.5 -40.5q-111 0 -197.5 37t-146 105.5t-90 166t-30.5 217.5zM225 505q0 -97 23 -174.5t66.5 -132t106 -83.5t142.5 -29q77 0 137.5 30.5t103 86.5t65 134t22.5 174q0 426 -322 426q-78 0 -141.5 -30.5t-108.5 -87t-69.5 -136.5t-24.5 -178z" />
<glyph unicode="&#xf1;" horiz-adv-x="1127" d="M165 0v1024h128v-178h4q114 202 343 202q168 0 256 -109t88 -315v-624h-128v590q0 347 -252 347q-67 0 -124 -26.5t-98.5 -73.5t-65 -111.5t-23.5 -139.5v-586h-128zM270 1195q0 51 12.5 93t35.5 72t56 46.5t75 16.5q68 0 154 -62q71 -51 123 -51q41 0 65.5 32.5 t24.5 97.5h86q0 -51 -12.5 -93t-35.5 -72.5t-56 -47.5t-75 -17q-68 0 -156 64q-70 49 -119 49q-95 0 -95 -128h-83z" />
<glyph unicode="&#xf2;" horiz-adv-x="1174" d="M93 503q0 128 36 229t102.5 171.5t160.5 107.5t210 37q111 0 200 -36.5t151 -105.5t95 -168t33 -225q0 -120 -34.5 -218.5t-98.5 -169.5t-156 -110t-208 -39q-114 0 -204.5 38t-154.5 107.5t-98 166.5t-34 215zM225 505q0 -96 26 -173t73.5 -132t115.5 -84.5t152 -29.5 q86 0 152 28.5t112 83t69.5 133.5t23.5 180q0 207 -92 316.5t-263 109.5q-84 0 -152 -29t-116.5 -84.5t-74.5 -136t-26 -182.5zM351 1531h136l227 -328h-108z" />
<glyph unicode="&#xf3;" horiz-adv-x="1174" d="M93 503q0 128 36 229t102.5 171.5t160.5 107.5t210 37q111 0 200 -36.5t151 -105.5t95 -168t33 -225q0 -120 -34.5 -218.5t-98.5 -169.5t-156 -110t-208 -39q-114 0 -204.5 38t-154.5 107.5t-98 166.5t-34 215zM225 505q0 -96 26 -173t73.5 -132t115.5 -84.5t152 -29.5 q86 0 152 28.5t112 83t69.5 133.5t23.5 180q0 207 -92 316.5t-263 109.5q-84 0 -152 -29t-116.5 -84.5t-74.5 -136t-26 -182.5zM454 1203l228 328h135l-255 -328h-108z" />
<glyph unicode="&#xf4;" horiz-adv-x="1174" d="M93 503q0 128 36 229t102.5 171.5t160.5 107.5t210 37q111 0 200 -36.5t151 -105.5t95 -168t33 -225q0 -120 -34.5 -218.5t-98.5 -169.5t-156 -110t-208 -39q-114 0 -204.5 38t-154.5 107.5t-98 166.5t-34 215zM225 505q0 -96 26 -173t73.5 -132t115.5 -84.5t152 -29.5 q86 0 152 28.5t112 83t69.5 133.5t23.5 180q0 207 -92 316.5t-263 109.5q-84 0 -152 -29t-116.5 -84.5t-74.5 -136t-26 -182.5zM334 1203l218 334h89l218 -334h-104l-161 234l-162 -234h-98z" />
<glyph unicode="&#xf5;" horiz-adv-x="1174" d="M93 503q0 128 36 229t102.5 171.5t160.5 107.5t210 37q111 0 200 -36.5t151 -105.5t95 -168t33 -225q0 -120 -34.5 -218.5t-98.5 -169.5t-156 -110t-208 -39q-114 0 -204.5 38t-154.5 107.5t-98 166.5t-34 215zM225 505q0 -96 26 -173t73.5 -132t115.5 -84.5t152 -29.5 q86 0 152 28.5t112 83t69.5 133.5t23.5 180q0 207 -92 316.5t-263 109.5q-84 0 -152 -29t-116.5 -84.5t-74.5 -136t-26 -182.5zM289 1195q0 51 12.5 93t35.5 72t56 46.5t75 16.5q68 0 154 -62q71 -51 123 -51q41 0 65.5 32.5t24.5 97.5h86q0 -51 -12.5 -93t-35.5 -72.5 t-56 -47.5t-75 -17q-68 0 -156 64q-70 49 -119 49q-95 0 -95 -128h-83z" />
<glyph unicode="&#xf6;" horiz-adv-x="1174" d="M93 503q0 128 36 229t102.5 171.5t160.5 107.5t210 37q111 0 200 -36.5t151 -105.5t95 -168t33 -225q0 -120 -34.5 -218.5t-98.5 -169.5t-156 -110t-208 -39q-114 0 -204.5 38t-154.5 107.5t-98 166.5t-34 215zM225 505q0 -96 26 -173t73.5 -132t115.5 -84.5t152 -29.5 q86 0 152 28.5t112 83t69.5 133.5t23.5 180q0 207 -92 316.5t-263 109.5q-84 0 -152 -29t-116.5 -84.5t-74.5 -136t-26 -182.5zM325 1288q0 37 25 60.5t59 23.5q18 0 34 -6.5t28 -17.5t19 -26.5t7 -33.5q0 -36 -25 -60.5t-60 -24.5q-18 0 -33.5 6.5t-27.5 18t-19 27t-7 33.5 zM686 1288q0 37 24.5 60.5t57.5 23.5q36 0 62 -24t26 -60t-24.5 -60.5t-61.5 -24.5q-33 0 -58.5 23.5t-25.5 61.5z" />
<glyph unicode="&#xf7;" horiz-adv-x="1366" d="M222 542v109h924v-109h-924zM594 233q0 39 26.5 66.5t65.5 27.5q42 0 65 -24.5t23 -68.5q0 -19 -6.5 -35.5t-18.5 -29t-28 -19.5t-35 -7t-36 7t-29.5 19t-19.5 28.5t-7 35.5zM597 958q0 39 26 66t65 27q42 0 65.5 -24.5t23.5 -67.5q0 -40 -26 -66t-63 -26 q-38 0 -64.5 26.5t-26.5 64.5z" />
<glyph unicode="&#xf8;" horiz-adv-x="1174" d="M39 -21l159 176q-105 141 -105 348q0 128 36 229t103 171t161 107.5t210 37.5q192 0 314 -106l167 183l73 -67l-174 -189q98 -140 98 -353q0 -123 -35 -222.5t-99.5 -170t-156.5 -109t-206 -38.5q-193 0 -318 107l-156 -172zM225 505q0 -150 63 -255l545 601 q-89 86 -239 86q-85 0 -153.5 -29.5t-116.5 -85t-73.5 -136t-25.5 -181.5zM349 173q95 -87 242 -87q86 0 153 29t112.5 83.5t69.5 134t24 179.5q0 152 -56 258z" />
<glyph unicode="&#xf9;" horiz-adv-x="1128" d="M143 422v602h128v-578q0 -184 65.5 -272t200.5 -88q66 0 120.5 25.5t94 72t61.5 111.5t22 144v585h128v-1024h-128v174h-4q-104 -198 -323 -198q-365 0 -365 446zM313 1531h136l227 -328h-108z" />
<glyph unicode="&#xfa;" horiz-adv-x="1128" d="M143 422v602h128v-578q0 -184 65.5 -272t200.5 -88q66 0 120.5 25.5t94 72t61.5 111.5t22 144v585h128v-1024h-128v174h-4q-104 -198 -323 -198q-365 0 -365 446zM452 1203l228 328h135l-255 -328h-108z" />
<glyph unicode="&#xfb;" horiz-adv-x="1128" d="M143 422v602h128v-578q0 -184 65.5 -272t200.5 -88q66 0 120.5 25.5t94 72t61.5 111.5t22 144v585h128v-1024h-128v174h-4q-104 -198 -323 -198q-365 0 -365 446zM308 1203l218 334h89l218 -334h-104l-161 234l-162 -234h-98z" />
<glyph unicode="&#xfc;" horiz-adv-x="1128" d="M143 422v602h128v-578q0 -184 65.5 -272t200.5 -88q66 0 120.5 25.5t94 72t61.5 111.5t22 144v585h128v-1024h-128v174h-4q-104 -198 -323 -198q-365 0 -365 446zM307 1288q0 37 25 60.5t59 23.5q18 0 34 -6.5t28 -17.5t19 -26.5t7 -33.5q0 -36 -25 -60.5t-60 -24.5 q-18 0 -33.5 6.5t-27.5 18t-19 27t-7 33.5zM668 1288q0 37 24.5 60.5t57.5 23.5q36 0 62 -24t26 -60t-24.5 -60.5t-61.5 -24.5q-33 0 -58.5 23.5t-25.5 61.5z" />
<glyph unicode="&#xfd;" horiz-adv-x="959" d="M17 1024h142l293 -811q6 -16 11.5 -36.5t10.5 -40.5h5q5 17 9.5 34.5t12.5 38.5l311 815h135l-485 -1210q-60 -150 -138 -222.5t-189 -72.5q-55 0 -93 13v120q22 -8 44.5 -12t45.5 -4q63 0 109.5 39.5t80.5 119.5l89 210zM365 1203l228 328h135l-255 -328h-108z" />
<glyph unicode="&#xfe;" horiz-adv-x="1175" d="M165 -471v1987h128v-688h4q57 107 152.5 163.5t215.5 56.5q98 0 175.5 -35.5t131 -100.5t82 -158t28.5 -209q0 -127 -32 -231.5t-92 -179.5t-145.5 -116.5t-192.5 -41.5q-216 0 -323 189h-4v-636h-128zM293 426q0 -70 23.5 -131.5t65.5 -108t101.5 -73.5t131.5 -27 q77 0 139 32.5t105.5 92.5t67 145t23.5 190q0 90 -22 162.5t-62.5 123.5t-98 78t-128.5 27q-80 0 -144 -29.5t-109 -80.5t-69 -119.5t-24 -145.5v-136z" />
<glyph unicode="&#xff;" horiz-adv-x="959" d="M17 1024h142l293 -811q6 -16 11.5 -36.5t10.5 -40.5h5q5 17 9.5 34.5t12.5 38.5l311 815h135l-485 -1210q-60 -150 -138 -222.5t-189 -72.5q-55 0 -93 13v120q22 -8 44.5 -12t45.5 -4q63 0 109.5 39.5t80.5 119.5l89 210zM217 1288q0 37 25 60.5t59 23.5q18 0 34 -6.5 t28 -17.5t19 -26.5t7 -33.5q0 -36 -25 -60.5t-60 -24.5q-18 0 -33.5 6.5t-27.5 18t-19 27t-7 33.5zM578 1288q0 37 24.5 60.5t57.5 23.5q36 0 62 -24t26 -60t-24.5 -60.5t-61.5 -24.5q-33 0 -58.5 23.5t-25.5 61.5z" />
<glyph unicode="&#x152;" horiz-adv-x="1920" d="M101 701q0 172 48.5 311.5t139.5 238.5t221.5 153t293.5 54q41 0 85 -3t83 -7t68.5 -8t42.5 -6h679v-122h-565v-526h524v-120h-524v-545h598v-121h-712q-48 -5 -122.5 -14.5t-178.5 -9.5q-160 0 -286 53.5t-214 149.5t-134.5 229t-46.5 293zM240 714q0 -136 37.5 -249.5 t108 -195.5t171 -127.5t227.5 -45.5q125 0 279 32v1181q-143 28 -270 28q-125 0 -227 -46.5t-174.5 -129t-112 -197t-39.5 -250.5z" />
<glyph unicode="&#x153;" horiz-adv-x="1893" d="M93 502q0 129 36.5 230.5t103.5 171.5t161 107t209 37q152 0 258 -68.5t155 -197.5h4q117 266 396 266q97 0 172 -34.5t126.5 -98.5t78.5 -155.5t27 -205.5v-65h-742q1 -95 25.5 -170t69.5 -126.5t109 -79t145 -27.5q176 0 328 121v-126q-147 -105 -354 -105 q-282 0 -388 266h-4q-123 -266 -425 -266q-114 0 -205 38t-154.5 107.5t-97.5 166.5t-34 214zM225 503q0 -95 25.5 -172t73 -131.5t115 -84t152.5 -29.5q86 0 152.5 28.5t112.5 83t69.5 133.5t23.5 179q0 103 -23.5 182.5t-69 134t-111.5 82.5t-151 28t-153 -29.5 t-116 -85.5t-74 -136.5t-26 -182.5zM1081 601h606q-4 159 -76.5 247.5t-200.5 88.5q-66 0 -122.5 -24t-99.5 -68t-70.5 -106t-36.5 -138z" />
<glyph unicode="&#x178;" horiz-adv-x="1119" d="M34 1434h151l328 -670q6 -12 16 -36t24 -61h3q6 18 17 42t27 54l343 671h142l-468 -897v-537h-133v534zM287 1636q0 37 25 60.5t59 23.5q18 0 34 -6.5t28 -17.5t19 -26.5t7 -33.5q0 -36 -25 -60.5t-60 -24.5q-18 0 -33.5 6.5t-27.5 18t-19 27t-7 33.5zM648 1636 q0 37 24.5 60.5t57.5 23.5q36 0 62 -24t26 -60t-24.5 -60.5t-61.5 -24.5q-33 0 -58.5 23.5t-25.5 61.5z" />
<glyph unicode="&#x2c6;" horiz-adv-x="763" d="M110 1203l218 334h89l218 -334h-104l-161 234l-162 -234h-98z" />
<glyph unicode="&#x2dc;" horiz-adv-x="669" d="M38 1195q0 51 12.5 93t35.5 72t56 46.5t75 16.5q68 0 154 -62q71 -51 123 -51q41 0 65.5 32.5t24.5 97.5h86q0 -51 -12.5 -93t-35.5 -72.5t-56 -47.5t-75 -17q-68 0 -156 64q-70 49 -119 49q-95 0 -95 -128h-83z" />
<glyph unicode="&#x2000;" horiz-adv-x="942" />
<glyph unicode="&#x2001;" horiz-adv-x="1885" />
<glyph unicode="&#x2002;" horiz-adv-x="942" />
<glyph unicode="&#x2003;" horiz-adv-x="1885" />
<glyph unicode="&#x2004;" horiz-adv-x="628" />
<glyph unicode="&#x2005;" horiz-adv-x="471" />
<glyph unicode="&#x2006;" horiz-adv-x="314" />
<glyph unicode="&#x2007;" horiz-adv-x="314" />
<glyph unicode="&#x2008;" horiz-adv-x="235" />
<glyph unicode="&#x2009;" horiz-adv-x="377" />
<glyph unicode="&#x200a;" horiz-adv-x="104" />
<glyph unicode="&#x2010;" horiz-adv-x="817" d="M144 530v110h547v-110h-547z" />
<glyph unicode="&#x2011;" horiz-adv-x="817" d="M144 530v110h547v-110h-547z" />
<glyph unicode="&#x2012;" horiz-adv-x="817" d="M144 530v110h547v-110h-547z" />
<glyph unicode="&#x2013;" horiz-adv-x="1024" d="M0 530v110h1024v-110h-1024z" />
<glyph unicode="&#x2014;" horiz-adv-x="2048" d="M0 530v110h2048v-110h-2048z" />
<glyph unicode="&#x2018;" horiz-adv-x="453" d="M109 998l147 448h97l-116 -448h-128z" />
<glyph unicode="&#x2019;" horiz-adv-x="453" d="M111 998l118 448h126l-148 -448h-96z" />
<glyph unicode="&#x201a;" horiz-adv-x="453" d="M83 -226l117 444h126l-148 -444h-95z" />
<glyph unicode="&#x201c;" horiz-adv-x="729" d="M109 998l147 448h97l-116 -448h-128zM385 998l148 448h96l-118 -448h-126z" />
<glyph unicode="&#x201d;" horiz-adv-x="729" d="M111 998l118 448h126l-148 -448h-96zM387 998l115 448h129l-147 -448h-97z" />
<glyph unicode="&#x201e;" horiz-adv-x="729" d="M83 -228l117 446h126l-148 -446h-95zM358 -228l116 446h128l-147 -446h-97z" />
<glyph unicode="&#x2022;" horiz-adv-x="821" d="M164 688q0 51 19.5 96t52.5 78.5t78 53t96 19.5t96 -19.5t78.5 -53t53 -78.5t19.5 -96t-19.5 -96t-53 -78t-78.5 -52.5t-96 -19.5t-96 19.5t-78 52.5t-52.5 78t-19.5 96z" />
<glyph unicode="&#x2026;" horiz-adv-x="1432" d="M140 79q0 40 27 68t67 28q20 0 37 -7.5t30.5 -21t21 -30.5t7.5 -37q0 -41 -28 -68.5t-68 -27.5t-67 27.5t-27 68.5zM618 79q0 20 7.5 37t21 30.5t31 21t36.5 7.5t36.5 -8t30.5 -21t21 -30.5t8 -36.5q0 -41 -28 -68.5t-68 -27.5t-68 27.5t-28 68.5zM1101 79q0 40 27 68 t67 28q20 0 37 -7.5t30.5 -21t21 -30.5t7.5 -37q0 -42 -28 -69t-68 -27t-67 27.5t-27 68.5z" />
<glyph unicode="&#x202f;" horiz-adv-x="377" />
<glyph unicode="&#x2039;" horiz-adv-x="641" d="M109 536l288 344h134l-287 -344l287 -336h-134z" />
<glyph unicode="&#x203a;" horiz-adv-x="641" d="M110 200l287 336l-287 344h134l288 -344l-288 -336h-134z" />
<glyph unicode="&#x205f;" horiz-adv-x="471" />
<glyph unicode="&#x20ac;" horiz-adv-x="1080" d="M90 491v112h122q-2 20 -3 42t-1 47q0 59 6 122h-124v112h140q23 125 70.5 224t114.5 167.5t152 104.5t182 36q131 0 239 -55v-132q-115 75 -249 75q-67 0 -127.5 -28.5t-110 -82.5t-85.5 -132t-56 -177h520v-112h-536q-2 -21 -3 -45.5t-1 -53.5q0 -28 0.5 -56.5 t2.5 -55.5h537v-112h-523q33 -201 128 -302.5t236 -101.5q129 0 267 90v-126q-132 -75 -278 -75q-98 0 -179 33t-143 97.5t-103.5 161t-61.5 223.5h-133z" />
<glyph unicode="&#x2122;" horiz-adv-x="1584" d="M73 1346v88h526v-88h-216v-574h-97v574h-213zM689 772v662h121l224 -521h4l231 521h117v-662h-95v505h-4l-223 -505h-64l-215 505h-4v-505h-92z" />
<glyph unicode="&#x25fc;" horiz-adv-x="1025" d="M0 0v1025h1025v-1025h-1025z" />
<glyph unicode="&#xfb01;" horiz-adv-x="1060" d="M44 912v112h179v172q0 82 24 145.5t65.5 106.5t97 65t118.5 22q72 0 114 -19v-121q-43 28 -111 28q-180 0 -180 -235v-164h255v-112h-255v-912h-128v912h-179zM742 1375q0 39 27 64.5t64 25.5q19 0 36 -6.5t30 -18.5t20.5 -28.5t7.5 -36.5q0 -19 -7.5 -36t-20.5 -29.5 t-30 -19.5t-36 -7q-38 0 -64.5 26t-26.5 66zM769 0v1024h128v-1024h-128z" />
<glyph unicode="&#xfb02;" horiz-adv-x="1060" d="M44 912v112h179v172q0 82 24 145.5t65.5 106.5t97 65t118.5 22q72 0 114 -19v-121q-43 28 -111 28q-180 0 -180 -235v-164h255v-112h-255v-912h-128v912h-179zM771 0v1516h127v-1516h-127z" />
<glyph unicode="&#xfb03;" horiz-adv-x="1718" d="M44 912v112h179v18q0 107 23 194t68 148t111.5 94t153.5 33q47 0 87 -4t66 -13v-121q-27 12 -65 19t-86 7q-115 0 -172.5 -88.5t-57.5 -273.5v-13h473v19q0 106 29 196.5t87 156.5t145.5 103t203.5 37q67 0 126.5 -6t94.5 -14v-121q-42 13 -102 21t-124 8 q-85 0 -147.5 -26.5t-103.5 -76.5t-61 -121.5t-20 -162.5v-13h601v-1024h-128v912h-473v-912h-128v912h-473v-912h-128v912h-179z" />
<glyph unicode="&#xfb04;" horiz-adv-x="1718" d="M44 912v112h179v18q0 107 23 194t68 148t111.5 94t153.5 33q47 0 87 -4t66 -13v-121q-27 12 -65 19t-86 7q-115 0 -172.5 -88.5t-57.5 -273.5v-13h472v19q0 106 27.5 196.5t83.5 156.5t142 103t202 37q57 0 127 -6.5t148 -17.5v-1512h-127v1410q-29 5 -70 9.5t-83 4.5 q-85 0 -146 -26.5t-100 -76.5t-57.5 -121.5t-18.5 -162.5v-13h258v-112h-258v-912h-128v912h-472v-912h-128v912h-179z" />
</font>
</defs>
</svg>
